<?xml version="1.0" standalone="no"?>
<!DOCTYPE svg PUBLIC "-//W3C//DTD SVG 1.1//EN" "http://www.w3.org/Graphics/SVG/1.1/DTD/svg11.dtd" >
<svg>
<metadata>
Created by FontForge 20090914 at Fri May  7 09:56:44 2021
 By www-data
Copyright (c) Muhammadi Enterprases (pvt) Lmtd, 2009. All rights reserved.
Designe By : Qari Muhmmad Akram Muhammadi Mob : 0321-4161840aligraphy of Alli Ahmed Sabri Sanat Nagar Out Fall Rode Lahore
</metadata>
<defs>
<font id="MQ" horiz-adv-x="1660" >
  <font-face 
    font-family="MQ"
    font-weight="400"
    font-stretch="normal"
    units-per-em="2600"
    panose-1="3 2 4 0 0 0 0 0 0 0"
    ascent="2080"
    descent="-520"
    x-height="934.997"
    cap-height="1356"
    bbox="-550.596 -2141 16339 6702"
    underline-thickness="25"
    underline-position="-680"
    unicode-range="U+0001-U+FFC1"
  />
<missing-glyph horiz-adv-x="684" 
d="M293 156v90h76v-90h-76zM300 313l-2 22c0 49.333 7.33301 88.333 22 117c8.66699 17.333 27.667 40.666 57 69.999c28.667 28.667 47 50 55 64c8 14.667 12 30.667 12 48c0 32.667 -10.333 59.667 -31 81c-20 22 -43 33 -69 33c-30 0 -54.833 -10 -74.5 -30
s-31.834 -52.333 -36.501 -97l-67 11c6 63.333 25.5 109.666 58.5 138.999s73.5 44 121.5 44c47.333 0 87 -16.333 119 -49c32 -32 48 -74 48 -126c0 -29.333 -5.33301 -54.666 -16 -75.999c-11.333 -21.333 -33.666 -48.333 -66.999 -81c-34 -32 -53.333 -57.333 -58 -76
c-6.66699 -15.333 -10 -46.666 -10 -93.999h-62zM627 57v846h-570v-846h570zM684 960v-960h-684v960h684z" />
    <glyph glyph-name="uniFC00" unicode="&#xfe8b;&#xfe9e;" horiz-adv-x="1479" arabic-form="isolated" 
d="M355 637c40 37.333 104.665 86.999 193.998 148.999c-2 5.33301 -7.66699 8.5 -17 9.5s-14.666 2.5 -15.999 4.5c-74.667 3.33301 -149.334 7 -224.001 11c-86 6.66699 -156.667 18.334 -212 35.001c0 21.333 8.5 51 25.5 89s27.833 67.667 32.5 89
c18.667 47.333 58.667 87.333 120 120l154 80l232 104c92 42 159 96.333 201 163l75 146c30 58 65 101 105 129c42 10 81.333 -5 118 -45c30.667 -32.667 46 -72 46 -118c0 -24.667 -5.66699 -59 -17 -103c-11.333 -53.333 -18.666 -89 -21.999 -107
c0 -34 -5.33301 -44 -16 -30c-9.33301 18.667 -25.333 46.667 -48 84s-48.667 56.666 -78 57.999c-56.667 4 -100.334 -23.333 -131.001 -82c-40 -78.667 -71 -126 -93 -142c-45.333 -51.333 -117.666 -92.333 -216.999 -123c-126 -40 -203.333 -68.333 -232 -85
c170 -29.333 343 -44 519 -44c101.333 0 204.666 4.66699 309.999 14l143 -5c-4 -38.667 -20.333 -88.334 -49 -149.001c-8 -40 -35.667 -62.667 -83 -68c-40 -4.66699 -80 -9 -120 -13c-135.333 -20.667 -253 -50 -353 -88c-160.667 -63.333 -317 -178 -469 -344
c-67.333 -102.667 -101 -196.667 -101 -282c0 -69.333 19.667 -139.666 59 -210.999c25.333 -42 73.333 -101.333 144 -178c160.667 -112 327.334 -168 500.001 -168c54.667 0 134 2 238 6c87.333 14.667 218 32 392 52l-9 -24c-84 -49.333 -211 -117 -381 -203
c-149.333 -69.333 -271.666 -104 -366.999 -104c-139.333 0 -280 47.667 -422 143c-109.333 72.667 -182 172 -218 298c-21.333 80.667 -32 159.334 -32 236.001c-7.33301 305.333 99 537.333 319 696zM1238 1953l-274.998 -102.999c-106 -40 -193.667 -82 -263 -126
c-7.33301 1.33301 -12 5.66602 -14 12.999c4 24.667 23.667 50.334 59 77.001l83 56l71 36c-6.66699 6.66699 -14.167 13.5 -22.5 20.5s-14.833 13.5 -19.5 19.5c-24.667 24.667 -37.334 52 -38.001 82c3.33301 21.333 11.333 44.666 24 70c20 31.333 31.667 51.666 35 61
c56.667 97.333 119 145 187 143c78 -12 126 -44.667 144 -98c6.66699 -6.66699 12.667 -22 18 -46c0 -10 -7 -16.667 -21 -20c-37.333 26.667 -77.333 45 -120 55c-58.667 12.667 -111 5 -157 -23c-3.33301 -4 -6 -8 -8 -12c0 -4.66699 2.33301 -18 7 -40
c39.333 -54.667 91.333 -88.334 156 -101.001c20.667 -6.66699 42.667 -9.33398 66 -8.00098c33.333 12.667 84.666 29.667 153.999 51c0.666992 -3.33301 0.666992 -7.66602 0 -13c-1.33301 -9.33301 -6.66602 -24.333 -15.999 -45c-8 -21.333 -13 -32.333 -15 -33
c-12.667 -7.33301 -24.334 -12.666 -35.001 -15.999zM670 101l0.000976562 11l158 211h8c56 -60.667 126 -115 210 -163c2.66699 -2.66699 4 -5.66699 4 -9l-153 -207c-2 -0.666992 -4.66699 -1 -8 -1c-4.66699 0 -12.334 2 -23.001 6c-52.667 24 -118 74.667 -196 152z" />
    <glyph glyph-name="uniFC01" unicode="&#xfe8b;&#xfea2;" horiz-adv-x="1486" arabic-form="isolated" 
d="M355 637c40 37.333 104.665 86.999 193.998 148.999c-2 5.33301 -7.66699 8.5 -17 9.5s-14.666 2.5 -15.999 4.5c-74.667 3.33301 -149.334 7 -224.001 11c-86 6.66699 -156.667 18.334 -212 35.001c0 21.333 8.5 51 25.5 89s27.833 67.667 32.5 89
c18.667 47.333 58.667 87.333 120 120l154 80l232 104c92 42 159 96.333 201 163l75 146c30 58 65 101 105 129c42 10 81.333 -5 118 -45c30.667 -32.667 46 -72 46 -118c0 -24.667 -5.66699 -59 -17 -103c-11.333 -53.333 -18.666 -89 -21.999 -107
c0 -34 -5.33301 -44 -16 -30c-9.33301 18.667 -25.333 46.667 -48 84s-48.667 56.666 -78 57.999c-56.667 4 -100.334 -23.333 -131.001 -82c-40 -78.667 -71 -126 -93 -142c-45.333 -51.333 -117.666 -92.333 -216.999 -123c-126 -40 -203.333 -68.333 -232 -85
c170 -29.333 343 -44 519 -44c101.333 0 204.666 4.66699 309.999 14l143 -5c-4 -38.667 -20.333 -88.334 -49 -149.001c-8 -40 -35.667 -62.667 -83 -68c-40 -4.66699 -80 -9 -120 -13c-135.333 -20.667 -253 -50 -353 -88c-160.667 -63.333 -317 -178 -469 -344
c-67.333 -102.667 -101 -196.667 -101 -282c0 -69.333 19.667 -139.666 59 -210.999c25.333 -42 73.333 -101.333 144 -178c160.667 -112 327.334 -168 500.001 -168c54.667 0 134 2 238 6c87.333 14.667 218 32 392 52l-9 -24c-84 -49.333 -211 -117 -381 -203
c-149.333 -69.333 -271.666 -104 -366.999 -104c-139.333 0 -280 47.667 -422 143c-109.333 72.667 -182 172 -218 298c-21.333 80.667 -32 159.334 -32 236.001c-7.33301 305.333 99 537.333 319 696zM1265 2044l-274.998 -103.001c-106 -40 -193.667 -82 -263 -126
c-7.33301 1.33301 -12 5.66602 -14 12.999c4 24.667 23.667 50.334 59 77.001l83 56l71 36c-6.66699 6.66699 -14.167 13.5 -22.5 20.5s-14.833 13.5 -19.5 19.5c-24.667 24.667 -37.334 52 -38.001 82c3.33301 21.333 11.333 44.666 24 70c20 31.333 31.667 51.666 35 61
c56.667 97.333 119 145 187 143c78 -12 126 -44.667 144 -98c6.66699 -6.66699 12.667 -22 18 -46c0 -10 -7 -16.667 -21 -20c-37.333 26.667 -77.333 45 -120 55c-58.667 12.667 -111 5 -157 -23c-3.33301 -4 -6 -8 -8 -12c0 -4.66699 2.33301 -18 7 -40
c39.333 -54.667 91.333 -88.334 156 -101c20.667 -6.66699 42.667 -9.33398 66 -8c33.333 12.667 84.666 29.667 153.999 51c0.666992 -3.33301 0.666992 -7.66602 0 -13c-1.33301 -9.33301 -6.66602 -24.333 -15.999 -45c-8 -21.333 -13 -32.333 -15 -33
c-12.667 -7.33301 -24.334 -12.666 -35.001 -15.999z" />
    <glyph glyph-name="uniFC03" unicode="&#xfe8b;&#xfef0;" horiz-adv-x="1424" arabic-form="isolated" 
d="M1283 -33c-16 -22 -71 -79.334 -165 -172.001c-150 -129.333 -320 -194 -510 -194c-231.333 0 -401.333 104.667 -510 314c-39.333 74.667 -62.333 163.667 -69 267c-2.66699 225.333 82.666 421.666 255.999 588.999l30 9l-6 -33l-112 -207
c-46 -82 -67.667 -153.333 -65 -214c2 -119.333 66.667 -226 194 -320c116 -88 235.333 -132 358 -132c139.333 0 299.333 55 480 165l85 65.5c28.667 22.333 48 47.166 58 74.499c-36 40.667 -101 69 -195 85c-129.333 20 -204.666 34.333 -225.999 43
s-26 31.334 -14 68.001c6 51.333 21.333 125 46 221c51.333 20.667 87 37 107 49c38.667 22 71.667 48.667 99 80c-6 126.667 -83 250.667 -231 372c4.66699 50.667 8 129.667 10 237c0 12 1 25 3 39c2 8.66699 11 9.66699 27 3c121.333 -90 202.333 -196.667 243 -320
c38 -130 38.667 -252.333 2 -367c-6 -29.333 -24 -72.333 -54 -129c14 -9.33301 57 -22 129 -38c54.667 -14 92.667 -35.333 114 -64c32.667 -47.333 45.667 -87.333 39 -120c-2 -49.333 -14 -110.166 -36 -182.499s-51 -135.166 -87 -188.499zM1178 1600l-274.998 -102.998
c-106 -40 -193.667 -82 -263 -126c-7.33301 1.33301 -12 5.66602 -14 12.999c4 24.667 23.667 50.334 59 77.001l83 56l71 36c-6.66699 6.66699 -14.167 13.5 -22.5 20.5s-14.833 13.5 -19.5 19.5c-24.667 24.667 -37.334 52 -38.001 82
c3.33301 21.333 11.333 44.666 24 69.999c20 31.333 31.667 51.666 35 60.999c56.667 97.333 119 145 187 143c78 -12 126 -44.667 144 -98c6.66699 -6.66699 12.667 -22 18 -46c0 -10 -7 -16.667 -21 -20c-37.333 26.667 -77.333 45 -120 55
c-58.667 12.667 -111 5 -157 -23c-3.33301 -4 -6 -8 -8 -12c0 -4.66699 2.33301 -18 7 -40c39.333 -54.667 91.333 -88.334 156 -101.001c20.667 -6.66699 42.667 -9.33398 66 -8.00098c33.333 12.667 84.666 29.667 153.999 51
c0.666992 -3.33301 0.666992 -7.66602 0 -12.999c-1.33301 -9.33301 -6.66602 -24.333 -15.999 -45c-8 -21.333 -13 -32.333 -15 -33c-12.667 -7.33301 -24.334 -12.666 -35.001 -15.999z" />
    <glyph glyph-name="uniFC04" unicode="&#xfe8b;&#xfef2;" horiz-adv-x="1424" arabic-form="isolated" 
d="M1284 -33c-16 -22 -71 -79.334 -165 -172.001c-150 -129.333 -320 -194 -510 -194c-231.333 0 -401.333 104.667 -510 314c-39.333 74.667 -62.333 163.667 -69 267c-2.66699 225.333 82.666 421.666 255.999 588.999l30 9l-6 -33l-112 -207
c-46 -82 -67.667 -153.333 -65 -214c2 -119.333 66.667 -226 194 -320c116 -88 235.333 -132 358 -132c139.333 0 299.333 55 480 165l85 65.5c28.667 22.333 48 47.166 58 74.499c-36 40.667 -101 69 -195 85c-129.333 20 -204.666 34.333 -225.999 43
s-26 31.334 -14 68.001c6 51.333 21.333 125 46 221c51.333 20.667 87 37 107 49c38.667 22 71.667 48.667 99 80c-6 126.667 -83 250.667 -231 372c4.66699 50.667 8 129.667 10 237c0 12 1 25 3 39c2 8.66699 11 9.66699 27 3c121.333 -90 202.333 -196.667 243 -320
c38 -130 38.667 -252.333 2 -367c-6 -29.333 -24 -72.333 -54 -129c14 -9.33301 57 -22 129 -38c54.667 -14 92.667 -35.333 114 -64c32.667 -47.333 45.667 -87.333 39 -120c-2 -49.333 -14 -110.166 -36 -182.499s-51 -135.166 -87 -188.499zM1176 1600l-274.998 -102.998
c-106 -40 -193.667 -82 -263 -126c-7.33301 1.33301 -12 5.66602 -14 12.999c4 24.667 23.667 50.334 59 77.001l83 56l71 36c-6.66699 6.66699 -14.167 13.5 -22.5 20.5s-14.833 13.5 -19.5 19.5c-24.667 24.667 -37.334 52 -38.001 82
c3.33301 21.333 11.333 44.666 24 69.999c20 31.333 31.667 51.666 35 60.999c56.667 97.333 119 145 187 143c78 -12 126 -44.667 144 -98c6.66699 -6.66699 12.667 -22 18 -46c0 -10 -7 -16.667 -21 -20c-37.333 26.667 -77.333 45 -120 55
c-58.667 12.667 -111 5 -157 -23c-3.33301 -4 -6 -8 -8 -12c0 -4.66699 2.33301 -18 7 -40c39.333 -54.667 91.333 -88.334 156 -101.001c20.667 -6.66699 42.667 -9.33398 66 -8.00098c33.333 12.667 84.666 29.667 153.999 51
c0.666992 -3.33301 0.666992 -7.66602 0 -12.999c-1.33301 -9.33301 -6.66602 -24.333 -15.999 -45c-8 -21.333 -13 -32.333 -15 -33c-12.667 -7.33301 -24.334 -12.666 -35.001 -15.999z" />
    <glyph glyph-name="uniFC05" unicode="&#xfe91;&#xfe9e;" horiz-adv-x="1499" arabic-form="isolated" 
d="M355 637c40 37.333 104.665 86.999 193.998 148.999c-2 5.33301 -7.66699 8.5 -17 9.5s-14.666 2.5 -15.999 4.5c-74.667 3.33301 -149.334 7 -224.001 11c-86 6.66699 -156.667 18.334 -212 35.001c0 21.333 8.5 51 25.5 89s27.833 67.667 32.5 89
c18.667 47.333 58.667 87.333 120 120l154 80l232 104c92 42 159 96.333 201 163l75 146c30 58 65 101 105 129c42 10 81.333 -5 118 -45c30.667 -32.667 46 -72 46 -118c0 -24.667 -5.66699 -59 -17 -103c-11.333 -53.333 -18.666 -89 -21.999 -107
c0 -34 -5.33301 -44 -16 -30c-9.33301 18.667 -25.333 46.667 -48 84s-48.667 56.666 -78 57.999c-56.667 4 -100.334 -23.333 -131.001 -82c-40 -78.667 -71 -126 -93 -142c-45.333 -51.333 -117.666 -92.333 -216.999 -123c-126 -40 -203.333 -68.333 -232 -85
c170 -29.333 343 -44 519 -44c101.333 0 204.666 4.66699 309.999 14l143 -5c-4 -38.667 -20.333 -88.334 -49 -149.001c-8 -40 -35.667 -62.667 -83 -68c-40 -4.66699 -80 -9 -120 -13c-135.333 -20.667 -253 -50 -353 -88c-160.667 -63.333 -317 -178 -469 -344
c-67.333 -102.667 -101 -196.667 -101 -282c0 -69.333 19.667 -139.666 59 -210.999c25.333 -42 73.333 -101.333 144 -178c160.667 -112 327.334 -168 500.001 -168c54.667 0 134 2 238 6c87.333 14.667 218 32 392 52l-9 -24c-84 -49.333 -211 -117 -381 -203
c-149.333 -69.333 -271.666 -104 -366.999 -104c-139.333 0 -280 47.667 -422 143c-109.333 72.667 -182 172 -218 298c-21.333 80.667 -32 159.334 -32 236.001c-7.33301 305.333 99 537.333 319 696zM1067 489.999l0.000976562 11l158 211h8c56 -60.667 126 -115 210 -163
c2.66699 -2.66699 4 -5.66699 4 -9l-153 -207c-2 -0.666992 -4.66699 -1 -8 -1c-4.66699 0 -12.334 2 -23.001 6c-52.667 24 -118 74.667 -196 152zM524.999 126.999l0.000976562 11l158 211h8c56 -60.667 126 -115 210 -163c2.66699 -2.66699 4 -5.66699 4 -9l-153 -207
c-2 -0.666992 -4.66699 -1 -8 -1c-4.66699 0 -12.334 2 -23.001 6c-52.667 24 -118 74.667 -196 152z" />
    <glyph glyph-name="uniFC06" unicode="&#xfe91;&#xfea2;" horiz-adv-x="1495" arabic-form="isolated" 
d="M355 637c40 37.333 104.665 86.999 193.998 148.999c-2 5.33301 -7.66699 8.5 -17 9.5s-14.666 2.5 -15.999 4.5c-74.667 3.33301 -149.334 7 -224.001 11c-86 6.66699 -156.667 18.334 -212 35.001c0 21.333 8.5 51 25.5 89s27.833 67.667 32.5 89
c18.667 47.333 58.667 87.333 120 120l154 80l232 104c92 42 159 96.333 201 163l75 146c30 58 65 101 105 129c42 10 81.333 -5 118 -45c30.667 -32.667 46 -72 46 -118c0 -24.667 -5.66699 -59 -17 -103c-11.333 -53.333 -18.666 -89 -21.999 -107
c0 -34 -5.33301 -44 -16 -30c-9.33301 18.667 -25.333 46.667 -48 84s-48.667 56.666 -78 57.999c-56.667 4 -100.334 -23.333 -131.001 -82c-40 -78.667 -71 -126 -93 -142c-45.333 -51.333 -117.666 -92.333 -216.999 -123c-126 -40 -203.333 -68.333 -232 -85
c170 -29.333 343 -44 519 -44c101.333 0 204.666 4.66699 309.999 14l143 -5c-4 -38.667 -20.333 -88.334 -49 -149.001c-8 -40 -35.667 -62.667 -83 -68c-40 -4.66699 -80 -9 -120 -13c-135.333 -20.667 -253 -50 -353 -88c-160.667 -63.333 -317 -178 -469 -344
c-67.333 -102.667 -101 -196.667 -101 -282c0 -69.333 19.667 -139.666 59 -210.999c25.333 -42 73.333 -101.333 144 -178c160.667 -112 327.334 -168 500.001 -168c54.667 0 134 2 238 6c87.333 14.667 218 32 392 52l-9 -24c-84 -49.333 -211 -117 -381 -203
c-149.333 -69.333 -271.666 -104 -366.999 -104c-139.333 0 -280 47.667 -422 143c-109.333 72.667 -182 172 -218 298c-21.333 80.667 -32 159.334 -32 236.001c-7.33301 305.333 99 537.333 319 696zM979.998 497.999l0.000976562 11l158 211h8
c56 -60.667 126 -115 210 -163c2.66699 -2.66699 4 -5.66699 4 -9l-153 -207c-2 -0.666992 -4.66699 -1 -8 -1c-4.66699 0 -12.334 2 -23.001 6c-52.667 24 -118 74.667 -196 152z" />
    <glyph glyph-name="uniFC07" unicode="&#xfe91;&#xfea6;" horiz-adv-x="1475" arabic-form="isolated" 
d="M355 637c40 37.333 104.665 86.999 193.998 148.999c-2 5.33301 -7.66699 8.5 -17 9.5s-14.666 2.5 -15.999 4.5c-74.667 3.33301 -149.334 7 -224.001 11c-86 6.66699 -156.667 18.334 -212 35.001c0 21.333 8.5 51 25.5 89s27.833 67.667 32.5 89
c18.667 47.333 58.667 87.333 120 120l154 80l232 104c92 42 159 96.333 201 163l75 146c30 58 65 101 105 129c42 10 81.333 -5 118 -45c30.667 -32.667 46 -72 46 -118c0 -24.667 -5.66699 -59 -17 -103c-11.333 -53.333 -18.666 -89 -21.999 -107
c0 -34 -5.33301 -44 -16 -30c-9.33301 18.667 -25.333 46.667 -48 84s-48.667 56.666 -78 57.999c-56.667 4 -100.334 -23.333 -131.001 -82c-40 -78.667 -71 -126 -93 -142c-45.333 -51.333 -117.666 -92.333 -216.999 -123c-126 -40 -203.333 -68.333 -232 -85
c170 -29.333 343 -44 519 -44c101.333 0 204.666 4.66699 309.999 14l143 -5c-4 -38.667 -20.333 -88.334 -49 -149.001c-8 -40 -35.667 -62.667 -83 -68c-40 -4.66699 -80 -9 -120 -13c-135.333 -20.667 -253 -50 -353 -88c-160.667 -63.333 -317 -178 -469 -344
c-67.333 -102.667 -101 -196.667 -101 -282c0 -69.333 19.667 -139.666 59 -210.999c25.333 -42 73.333 -101.333 144 -178c160.667 -112 327.334 -168 500.001 -168c54.667 0 134 2 238 6c87.333 14.667 218 32 392 52l-9 -24c-84 -49.333 -211 -117 -381 -203
c-149.333 -69.333 -271.666 -104 -366.999 -104c-139.333 0 -280 47.667 -422 143c-109.333 72.667 -182 172 -218 298c-21.333 80.667 -32 159.334 -32 236.001c-7.33301 305.333 99 537.333 319 696zM1029 490.999l0.000976562 11l158 211h8c56 -60.667 126 -115 210 -163
c2.66699 -2.66699 4 -5.66699 4 -9l-153 -207c-2 -0.666992 -4.66699 -1 -8 -1c-4.66699 0 -12.334 2 -23.001 6c-52.667 24 -118 74.667 -196 152zM269.999 1578l0.000976562 11l158 211h8c56 -60.667 126 -115 210 -163c2.66699 -2.66699 4 -5.66699 4 -9l-153 -207
c-2 -0.666992 -4.66699 -1 -8 -1c-4.66699 0 -12.334 2 -23.001 6c-52.667 24 -118 74.667 -196 152z" />
    <glyph glyph-name="uniFC09" unicode="&#xfe91;&#xfef0;" horiz-adv-x="1419" arabic-form="isolated" 
d="M1283 -33c-16 -22 -71 -79.334 -165 -172.001c-150 -129.333 -320 -194 -510 -194c-231.333 0 -401.333 104.667 -510 314c-39.333 74.667 -62.333 163.667 -69 267c-2.66699 225.333 82.666 421.666 255.999 588.999l30 9l-6 -33l-112 -207
c-46 -82 -67.667 -153.333 -65 -214c2 -119.333 66.667 -226 194 -320c116 -88 235.333 -132 358 -132c139.333 0 299.333 55 480 165l85 65.5c28.667 22.333 48 47.166 58 74.499c-36 40.667 -101 69 -195 85c-129.333 20 -204.666 34.333 -225.999 43
s-26 31.334 -14 68.001c6 51.333 21.333 125 46 221c51.333 20.667 87 37 107 49c38.667 22 71.667 48.667 99 80c-6 126.667 -83 250.667 -231 372c4.66699 50.667 8 129.667 10 237c0 12 1 25 3 39c2 8.66699 11 9.66699 27 3c121.333 -90 202.333 -196.667 243 -320
c38 -130 38.667 -252.333 2 -367c-6 -29.333 -24 -72.333 -54 -129c14 -9.33301 57 -22 129 -38c54.667 -14 92.667 -35.333 114 -64c32.667 -47.333 45.667 -87.333 39 -120c-2 -49.333 -14 -110.166 -36 -182.499s-51 -135.166 -87 -188.499zM955 -556.001l0.000976562 11
l158 211h8c56 -60.667 126 -115 210 -163c2.66699 -2.66699 4 -5.66699 4 -9l-153 -207c-2 -0.666992 -4.66699 -1 -8 -1c-4.66699 0 -12.334 2 -23.001 6c-52.667 24 -118 74.667 -196 152z" />
    <glyph glyph-name="uniFC0B" unicode="&#xfe97;&#xfe9e;" horiz-adv-x="1489" arabic-form="isolated" 
d="M355 637c40 37.333 104.665 86.999 193.998 148.999c-2 5.33301 -7.66699 8.5 -17 9.5s-14.666 2.5 -15.999 4.5c-74.667 3.33301 -149.334 7 -224.001 11c-86 6.66699 -156.667 18.334 -212 35.001c0 21.333 8.5 51 25.5 89s27.833 67.667 32.5 89
c18.667 47.333 58.667 87.333 120 120l154 80l232 104c92 42 159 96.333 201 163l75 146c30 58 65 101 105 129c42 10 81.333 -5 118 -45c30.667 -32.667 46 -72 46 -118c0 -24.667 -5.66699 -59 -17 -103c-11.333 -53.333 -18.666 -89 -21.999 -107
c0 -34 -5.33301 -44 -16 -30c-9.33301 18.667 -25.333 46.667 -48 84s-48.667 56.666 -78 57.999c-56.667 4 -100.334 -23.333 -131.001 -82c-40 -78.667 -71 -126 -93 -142c-45.333 -51.333 -117.666 -92.333 -216.999 -123c-126 -40 -203.333 -68.333 -232 -85
c170 -29.333 343 -44 519 -44c101.333 0 204.666 4.66699 309.999 14l143 -5c-4 -38.667 -20.333 -88.334 -49 -149.001c-8 -40 -35.667 -62.667 -83 -68c-40 -4.66699 -80 -9 -120 -13c-135.333 -20.667 -253 -50 -353 -88c-160.667 -63.333 -317 -178 -469 -344
c-67.333 -102.667 -101 -196.667 -101 -282c0 -69.333 19.667 -139.666 59 -210.999c25.333 -42 73.333 -101.333 144 -178c160.667 -112 327.334 -168 500.001 -168c54.667 0 134 2 238 6c87.333 14.667 218 32 392 52l-9 -24c-84 -49.333 -211 -117 -381 -203
c-149.333 -69.333 -271.666 -104 -366.999 -104c-139.333 0 -280 47.667 -422 143c-109.333 72.667 -182 172 -218 298c-21.333 80.667 -32 159.334 -32 236.001c-7.33301 305.333 99 537.333 319 696zM704.998 1958l-0.00195312 9.99805
c33.333 46.667 81.333 110.334 144 191.001h7c12.667 -14 48.334 -42.667 107.001 -86l85 -63c32 44.667 75 101.334 129 170.001h7c50.667 -54 114.334 -103 191.001 -147c2 -1.33301 3 -4.33301 3 -9l-140 -187c-0.666992 -1.33301 -2.66699 -2 -6 -2
c-4.66699 0 -12 1.66699 -22 5c-47.333 22 -106.333 68.667 -177 140v1l-123 -165c-0.666992 -1.33301 -2.66699 -2 -6 -2c-4.66699 0 -12 1.66699 -22 5c-47.333 22 -106.333 68.333 -177 139zM682.996 111.997l0.000976562 11l158 211h8c56 -60.667 126 -115 210 -163
c2.66699 -2.66699 4 -5.66699 4 -9l-153 -207c-2 -0.666992 -4.66699 -1 -8 -1c-4.66699 0 -12.334 2 -23.001 6c-52.667 24 -118 74.667 -196 152z" />
    <glyph glyph-name="uniFC0C" unicode="&#xfe97;&#xfea2;" horiz-adv-x="1483" arabic-form="isolated" 
d="M355 637c40 37.333 104.665 86.999 193.998 148.999c-2 5.33301 -7.66699 8.5 -17 9.5s-14.666 2.5 -15.999 4.5c-74.667 3.33301 -149.334 7 -224.001 11c-86 6.66699 -156.667 18.334 -212 35.001c0 21.333 8.5 51 25.5 89s27.833 67.667 32.5 89
c18.667 47.333 58.667 87.333 120 120l154 80l232 104c92 42 159 96.333 201 163l75 146c30 58 65 101 105 129c42 10 81.333 -5 118 -45c30.667 -32.667 46 -72 46 -118c0 -24.667 -5.66699 -59 -17 -103c-11.333 -53.333 -18.666 -89 -21.999 -107
c0 -34 -5.33301 -44 -16 -30c-9.33301 18.667 -25.333 46.667 -48 84s-48.667 56.666 -78 57.999c-56.667 4 -100.334 -23.333 -131.001 -82c-40 -78.667 -71 -126 -93 -142c-45.333 -51.333 -117.666 -92.333 -216.999 -123c-126 -40 -203.333 -68.333 -232 -85
c170 -29.333 343 -44 519 -44c101.333 0 204.666 4.66699 309.999 14l143 -5c-4 -38.667 -20.333 -88.334 -49 -149.001c-8 -40 -35.667 -62.667 -83 -68c-40 -4.66699 -80 -9 -120 -13c-135.333 -20.667 -253 -50 -353 -88c-160.667 -63.333 -317 -178 -469 -344
c-67.333 -102.667 -101 -196.667 -101 -282c0 -69.333 19.667 -139.666 59 -210.999c25.333 -42 73.333 -101.333 144 -178c160.667 -112 327.334 -168 500.001 -168c54.667 0 134 2 238 6c87.333 14.667 218 32 392 52l-9 -24c-84 -49.333 -211 -117 -381 -203
c-149.333 -69.333 -271.666 -104 -366.999 -104c-139.333 0 -280 47.667 -422 143c-109.333 72.667 -182 172 -218 298c-21.333 80.667 -32 159.334 -32 236.001c-7.33301 305.333 99 537.333 319 696zM693.998 1952l-0.00195312 9.99805
c33.333 46.667 81.333 110.334 144 191.001h7c12.667 -14 48.334 -42.667 107.001 -86l85 -63c32 44.667 75 101.334 129 170.001h7c50.667 -54 114.334 -103 191.001 -147c2 -1.33301 3 -4.33301 3 -9l-140 -187c-0.666992 -1.33301 -2.66699 -2 -6 -2
c-4.66699 0 -12 1.66699 -22 5c-47.333 22 -106.333 68.667 -177 140v1l-123 -165c-0.666992 -1.33301 -2.66699 -2 -6 -2c-4.66699 0 -12 1.66699 -22 5c-47.333 22 -106.333 68.333 -177 139z" />
    <glyph glyph-name="uniFC0D" unicode="&#xfe97;&#xfea6;" horiz-adv-x="1482" arabic-form="isolated" 
d="M355 637c40 37.333 104.665 86.999 193.998 148.999c-2 5.33301 -7.66699 8.5 -17 9.5s-14.666 2.5 -15.999 4.5c-74.667 3.33301 -149.334 7 -224.001 11c-86 6.66699 -156.667 18.334 -212 35.001c0 21.333 8.5 51 25.5 89s27.833 67.667 32.5 89
c18.667 47.333 58.667 87.333 120 120l154 80l232 104c92 42 159 96.333 201 163l75 146c30 58 65 101 105 129c42 10 81.333 -5 118 -45c30.667 -32.667 46 -72 46 -118c0 -24.667 -5.66699 -59 -17 -103c-11.333 -53.333 -18.666 -89 -21.999 -107
c0 -34 -5.33301 -44 -16 -30c-9.33301 18.667 -25.333 46.667 -48 84s-48.667 56.666 -78 57.999c-56.667 4 -100.334 -23.333 -131.001 -82c-40 -78.667 -71 -126 -93 -142c-45.333 -51.333 -117.666 -92.333 -216.999 -123c-126 -40 -203.333 -68.333 -232 -85
c170 -29.333 343 -44 519 -44c101.333 0 204.666 4.66699 309.999 14l143 -5c-4 -38.667 -20.333 -88.334 -49 -149.001c-8 -40 -35.667 -62.667 -83 -68c-40 -4.66699 -80 -9 -120 -13c-135.333 -20.667 -253 -50 -353 -88c-160.667 -63.333 -317 -178 -469 -344
c-67.333 -102.667 -101 -196.667 -101 -282c0 -69.333 19.667 -139.666 59 -210.999c25.333 -42 73.333 -101.333 144 -178c160.667 -112 327.334 -168 500.001 -168c54.667 0 134 2 238 6c87.333 14.667 218 32 392 52l-9 -24c-84 -49.333 -211 -117 -381 -203
c-149.333 -69.333 -271.666 -104 -366.999 -104c-139.333 0 -280 47.667 -422 143c-109.333 72.667 -182 172 -218 298c-21.333 80.667 -32 159.334 -32 236.001c-7.33301 305.333 99 537.333 319 696zM708.998 2006l-0.00195312 9.99902
c33.333 46.667 81.333 110.334 144 191h7c12.667 -14 48.334 -42.667 107.001 -86l85 -63c32 44.667 75 101.334 129 170.001h7c50.667 -54 114.334 -103 191.001 -147c2 -1.33301 3 -4.33301 3 -9l-140 -187c-0.666992 -1.33301 -2.66699 -2 -6 -2
c-4.66699 0 -12 1.66699 -22 5c-47.333 22 -106.333 68.667 -177 140v1l-123 -165c-0.666992 -1.33301 -2.66699 -2 -6 -2c-4.66699 0 -12 1.66699 -22 5c-47.333 22 -106.333 68.333 -177 139zM225.996 1531l0.000976562 11l158 211h8c56 -60.667 126 -115 210 -163
c2.66699 -2.66699 4 -5.66699 4 -9l-153 -207c-2 -0.666992 -4.66699 -1 -8 -1c-4.66699 0 -12.334 2 -23.001 6c-52.667 24 -118 74.667 -196 152z" />
    <glyph glyph-name="uniFC0F" unicode="&#xfe97;&#xfef0;" horiz-adv-x="1419" arabic-form="isolated" 
d="M1283 -33c-16 -22 -71 -79.334 -165 -172.001c-150 -129.333 -320 -194 -510 -194c-231.333 0 -401.333 104.667 -510 314c-39.333 74.667 -62.333 163.667 -69 267c-2.66699 225.333 82.666 421.666 255.999 588.999l30 9l-6 -33l-112 -207
c-46 -82 -67.667 -153.333 -65 -214c2 -119.333 66.667 -226 194 -320c116 -88 235.333 -132 358 -132c139.333 0 299.333 55 480 165l85 65.5c28.667 22.333 48 47.166 58 74.499c-36 40.667 -101 69 -195 85c-129.333 20 -204.666 34.333 -225.999 43
s-26 31.334 -14 68.001c6 51.333 21.333 125 46 221c51.333 20.667 87 37 107 49c38.667 22 71.667 48.667 99 80c-6 126.667 -83 250.667 -231 372c4.66699 50.667 8 129.667 10 237c0 12 1 25 3 39c2 8.66699 11 9.66699 27 3c121.333 -90 202.333 -196.667 243 -320
c38 -130 38.667 -252.333 2 -367c-6 -29.333 -24 -72.333 -54 -129c14 -9.33301 57 -22 129 -38c54.667 -14 92.667 -35.333 114 -64c32.667 -47.333 45.667 -87.333 39 -120c-2 -49.333 -14 -110.166 -36 -182.499s-51 -135.166 -87 -188.499zM581 1536
l-0.00195312 9.99805c33.333 46.667 81.333 110.334 144 191.001h7c12.667 -14 48.334 -42.667 107.001 -86l85 -63c32 44.667 75 101.334 129 170.001h7c50.667 -54 114.334 -103 191.001 -147c2 -1.33301 3 -4.33301 3 -9l-140 -187c-0.666992 -1.33301 -2.66699 -2 -6 -2
c-4.66699 0 -12 1.66699 -22 5c-47.333 22 -106.333 68.667 -177 140v1l-123 -165c-0.666992 -1.33301 -2.66699 -2 -6 -2c-4.66699 0 -12 1.66699 -22 5c-47.333 22 -106.333 68.333 -177 139z" />
    <glyph glyph-name="uniFC11" unicode="&#xfe9b;&#xfe9e;" horiz-adv-x="1486" arabic-form="isolated" 
d="M355 637c40 37.333 104.665 86.999 193.998 148.999c-2 5.33301 -7.66699 8.5 -17 9.5s-14.666 2.5 -15.999 4.5c-74.667 3.33301 -149.334 7 -224.001 11c-86 6.66699 -156.667 18.334 -212 35.001c0 21.333 8.5 51 25.5 89s27.833 67.667 32.5 89
c18.667 47.333 58.667 87.333 120 120l154 80l232 104c92 42 159 96.333 201 163l75 146c30 58 65 101 105 129c42 10 81.333 -5 118 -45c30.667 -32.667 46 -72 46 -118c0 -24.667 -5.66699 -59 -17 -103c-11.333 -53.333 -18.666 -89 -21.999 -107
c0 -34 -5.33301 -44 -16 -30c-9.33301 18.667 -25.333 46.667 -48 84s-48.667 56.666 -78 57.999c-56.667 4 -100.334 -23.333 -131.001 -82c-40 -78.667 -71 -126 -93 -142c-45.333 -51.333 -117.666 -92.333 -216.999 -123c-126 -40 -203.333 -68.333 -232 -85
c170 -29.333 343 -44 519 -44c101.333 0 204.666 4.66699 309.999 14l143 -5c-4 -38.667 -20.333 -88.334 -49 -149.001c-8 -40 -35.667 -62.667 -83 -68c-40 -4.66699 -80 -9 -120 -13c-135.333 -20.667 -253 -50 -353 -88c-160.667 -63.333 -317 -178 -469 -344
c-67.333 -102.667 -101 -196.667 -101 -282c0 -69.333 19.667 -139.666 59 -210.999c25.333 -42 73.333 -101.333 144 -178c160.667 -112 327.334 -168 500.001 -168c54.667 0 134 2 238 6c87.333 14.667 218 32 392 52l-9 -24c-84 -49.333 -211 -117 -381 -203
c-149.333 -69.333 -271.666 -104 -366.999 -104c-139.333 0 -280 47.667 -422 143c-109.333 72.667 -182 172 -218 298c-21.333 80.667 -32 159.334 -32 236.001c-7.33301 305.333 99 537.333 319 696zM837.998 2285v9.99902c33.333 46.667 81.333 110.334 144 191.001h7
c50 -54.667 113.667 -103.667 191 -147c1.33301 -2 2 -5 2 -9l-139 -188c-1.33301 -0.666992 -3.33301 -1 -6 -1c-4.66699 0 -11.667 1.66699 -21 5c-48 22 -107.333 68.333 -178 139zM700.998 1947l-0.00195312 9.99805c33.333 46.667 81.333 110.334 144 191.001h7
c12.667 -14 48.334 -42.667 107.001 -86l85 -63c32 44.667 75 101.334 129 170.001h7c50.667 -54 114.334 -103 191.001 -147c2 -1.33301 3 -4.33301 3 -9l-140 -187c-0.666992 -1.33301 -2.66699 -2 -6 -2c-4.66699 0 -12 1.66699 -22 5
c-47.333 22 -106.333 68.667 -177 140v1l-123 -165c-0.666992 -1.33301 -2.66699 -2 -6 -2c-4.66699 0 -12 1.66699 -22 5c-47.333 22 -106.333 68.333 -177 139zM687.996 123.996l0.000976562 11l158 211h8c56 -60.667 126 -115 210 -163c2.66699 -2.66699 4 -5.66699 4 -9
l-153 -207c-2 -0.666992 -4.66699 -1 -8 -1c-4.66699 0 -12.334 2 -23.001 6c-52.667 24 -118 74.667 -196 152z" />
    <glyph glyph-name="uniFC13" unicode="&#xfe9b;&#xfef0;" horiz-adv-x="1419" arabic-form="isolated" 
d="M1283 -33c-16 -22 -71 -79.334 -165 -172.001c-150 -129.333 -320 -194 -510 -194c-231.333 0 -401.333 104.667 -510 314c-39.333 74.667 -62.333 163.667 -69 267c-2.66699 225.333 82.666 421.666 255.999 588.999l30 9l-6 -33l-112 -207
c-46 -82 -67.667 -153.333 -65 -214c2 -119.333 66.667 -226 194 -320c116 -88 235.333 -132 358 -132c139.333 0 299.333 55 480 165l85 65.5c28.667 22.333 48 47.166 58 74.499c-36 40.667 -101 69 -195 85c-129.333 20 -204.666 34.333 -225.999 43
s-26 31.334 -14 68.001c6 51.333 21.333 125 46 221c51.333 20.667 87 37 107 49c38.667 22 71.667 48.667 99 80c-6 126.667 -83 250.667 -231 372c4.66699 50.667 8 129.667 10 237c0 12 1 25 3 39c2 8.66699 11 9.66699 27 3c121.333 -90 202.333 -196.667 243 -320
c38 -130 38.667 -252.333 2 -367c-6 -29.333 -24 -72.333 -54 -129c14 -9.33301 57 -22 129 -38c54.667 -14 92.667 -35.333 114 -64c32.667 -47.333 45.667 -87.333 39 -120c-2 -49.333 -14 -110.166 -36 -182.499s-51 -135.166 -87 -188.499zM714 1846v9.99902
c33.333 46.667 81.333 110.334 144 191.001h7c50 -54.667 113.667 -103.667 191 -147c1.33301 -2 2 -5 2 -9l-139 -188c-1.33301 -0.666992 -3.33301 -1 -6 -1c-4.66699 0 -11.667 1.66699 -21 5c-48 22 -107.333 68.333 -178 139zM577 1508l-0.00195312 9.99805
c33.333 46.667 81.333 110.334 144 191.001h7c12.667 -14 48.334 -42.667 107.001 -86l85 -63c32 44.667 75 101.334 129 170.001h7c50.667 -54 114.334 -103 191.001 -147c2 -1.33301 3 -4.33301 3 -9l-140 -187c-0.666992 -1.33301 -2.66699 -2 -6 -2
c-4.66699 0 -12 1.66699 -22 5c-47.333 22 -106.333 68.667 -177 140v1l-123 -165c-0.666992 -1.33301 -2.66699 -2 -6 -2c-4.66699 0 -12 1.66699 -22 5c-47.333 22 -106.333 68.333 -177 139z" />
    <glyph glyph-name="uniFC15" unicode="&#xfe9f;&#xfea2;" horiz-adv-x="1709" arabic-form="isolated" 
d="M1638 -554c-2 -2 -36 -12.667 -102 -32c-24.667 -8.66699 -112.334 -50 -263.001 -124c-105.333 -54 -200.666 -78.333 -285.999 -73c2.66699 -4 -20.666 -6 -69.999 -6c-342.667 0 -587 90.667 -733 272c-83.333 100 -128.333 231.333 -135 394c-16 170 22 338 114 504
c81.333 136.667 227 276 437 418c-24 2.66699 -61.667 6 -113 10c-2 2 -70.667 6.66699 -206 14c-80 4 -145.333 13.667 -196 29c-6 22.667 -3.33301 47.334 8 74.001l31 76c44 79.333 115 152.333 213 219c32 24 121.667 75.667 269 155c84.667 39.333 215 91.333 391 156
l15 16l-179 57c-72 23.333 -133.333 35 -184 35c-62.667 0 -118.667 -17 -168 -51c-22 -34 -59.667 -73.667 -113 -119c-10 6 -13 15.333 -9 28l9 26c19.333 73.333 54 139.333 104 198c57.333 66 119.666 104 186.999 114c23.333 3.33301 48 5 74 5
c55.333 0 126.333 -10.667 213 -32c109.333 -26 180 -41.667 212 -47c64.667 -12 131 -25.333 199 -40c77.333 -15.333 145.333 -20 204 -14c4 -6 6 -11.667 6 -17c0 3.33301 -9.66699 -24.334 -29 -83.001c-8 -8.66699 -25 -36.667 -51 -84
c-20 -34 -40.667 -56.667 -62 -68c-346 -63.333 -599.333 -135.333 -760 -216c-107.333 -32 -213 -85.667 -317 -161c128 -24.667 297 -34.334 507 -29.001c262.667 5.33301 432.667 6.33301 510 3c0 -28.667 -16.667 -69.334 -50 -122.001
c-27.333 -45.333 -54 -81.333 -80 -108c-68 -9.33301 -103.667 -14 -107 -14c-40 -8.66699 -72.333 -19.667 -97 -33c-358.667 -85.333 -616 -235.666 -772 -450.999c-68 -91.333 -98.667 -188.666 -92 -291.999c0 -60.667 12.333 -116 37 -166
c83.333 -157.333 222 -266 416 -326c138.667 -40.667 296.667 -61 474 -61h152c76.667 2 125 3 145 3l273 34c14.667 -7.33301 22 -17 22 -29c0 -22 -16 -36 -48 -42zM1261 561l0.000976562 11l158 211h8c56 -60.667 126 -115 210 -163c2.66699 -2.66699 4 -5.66699 4 -9
l-153 -207c-2 -0.666992 -4.66699 -1 -8 -1c-4.66699 0 -12.334 2 -23.001 6c-52.667 24 -118 74.667 -196 152z" />
    <glyph glyph-name="uniFC16" unicode="&#xfe9f;&#xfee2;" horiz-adv-x="1617" arabic-form="isolated" 
d="M120 669c38.667 40.667 118.666 79.667 239.999 117c8 88 44.167 170.667 108.5 248s139.5 132.666 225.5 165.999c37.333 26.667 94 51 170 73c86 25.333 144.333 47 175 65c-134.667 98.667 -279 152 -433 160c-66 -10 -134.667 -60 -206 -150c-8 8 -10 20 -6 36
c4 14 9 29.667 15 47c10 32.667 36.667 86.667 80 162c30.667 20.667 62.834 40.834 96.501 60.501s67.834 29.5 102.501 29.5c19.333 0 38 -2 56 -6c40.667 -9.33301 153 -46.333 337 -111c66 -31.333 152 -57 258 -77c175.333 -30.667 265 -47 269 -49
c8 -29.333 -2.66699 -75.333 -32 -138c-26 -55.333 -52.333 -98.333 -79 -129c-125.333 -10 -311 -34.667 -557 -74c-34.667 -8.66699 -69 -16 -103 -22c-39.333 -12 -71.333 -27 -96 -45c0 -17.333 9.33301 -35 28 -53c20 -24.667 32 -41 36 -49
c25.333 -31.333 61.333 -79.333 108 -144l-25 -149c-12 -54.667 -30 -98.667 -54 -132c-23.333 -4 -140.333 -5 -351 -3c-143.333 2 -254 -19.333 -332 -64c-8 -28 -10 -63.667 -6 -107l6 -102c12 -88 25.667 -285.333 41 -592c8 -137.333 3.33301 -218.333 -14 -243
c-8 -24 -22 -48.667 -42 -74c-12.667 21.333 -22.334 47.333 -29.001 78c-6 33.333 -8 59 -6 77c-1.33301 366 -24 638 -68 816c-10 140 19 266 87 378zM1044 578l0.000976562 11l158 211h8c56 -60.667 126 -115 210 -163c2.66699 -2.66699 4 -5.66699 4 -9l-153 -207
c-2 -0.666992 -4.66699 -1 -8 -1c-4.66699 0 -12.334 2 -23.001 6c-52.667 24 -118 74.667 -196 152z" />
    <glyph glyph-name="uniFC17" unicode="&#xfea3;&#xfe9e;" horiz-adv-x="1697" arabic-form="isolated" 
d="M1638 -554c-2 -2 -36 -12.667 -102 -32c-24.667 -8.66699 -112.334 -50 -263.001 -124c-105.333 -54 -200.666 -78.333 -285.999 -73c2.66699 -4 -20.666 -6 -69.999 -6c-342.667 0 -587 90.667 -733 272c-83.333 100 -128.333 231.333 -135 394c-16 170 22 338 114 504
c81.333 136.667 227 276 437 418c-24 2.66699 -61.667 6 -113 10c-2 2 -70.667 6.66699 -206 14c-80 4 -145.333 13.667 -196 29c-6 22.667 -3.33301 47.334 8 74.001l31 76c44 79.333 115 152.333 213 219c32 24 121.667 75.667 269 155c84.667 39.333 215 91.333 391 156
l15 16l-179 57c-72 23.333 -133.333 35 -184 35c-62.667 0 -118.667 -17 -168 -51c-22 -34 -59.667 -73.667 -113 -119c-10 6 -13 15.333 -9 28l9 26c19.333 73.333 54 139.333 104 198c57.333 66 119.666 104 186.999 114c23.333 3.33301 48 5 74 5
c55.333 0 126.333 -10.667 213 -32c109.333 -26 180 -41.667 212 -47c64.667 -12 131 -25.333 199 -40c77.333 -15.333 145.333 -20 204 -14c4 -6 6 -11.667 6 -17c0 3.33301 -9.66699 -24.334 -29 -83.001c-8 -8.66699 -25 -36.667 -51 -84
c-20 -34 -40.667 -56.667 -62 -68c-346 -63.333 -599.333 -135.333 -760 -216c-107.333 -32 -213 -85.667 -317 -161c128 -24.667 297 -34.334 507 -29.001c262.667 5.33301 432.667 6.33301 510 3c0 -28.667 -16.667 -69.334 -50 -122.001
c-27.333 -45.333 -54 -81.333 -80 -108c-68 -9.33301 -103.667 -14 -107 -14c-40 -8.66699 -72.333 -19.667 -97 -33c-358.667 -85.333 -616 -235.666 -772 -450.999c-68 -91.333 -98.667 -188.666 -92 -291.999c0 -60.667 12.333 -116 37 -166
c83.333 -157.333 222 -266 416 -326c138.667 -40.667 296.667 -61 474 -61h152c76.667 2 125 3 145 3l273 34c14.667 -7.33301 22 -17 22 -29c0 -22 -16 -36 -48 -42zM761 77l0.000976562 11l158 211h8c56 -60.667 126 -115 210 -163c2.66699 -2.66699 4 -5.66699 4 -9
l-153 -207c-2 -0.666992 -4.66699 -1 -8 -1c-4.66699 0 -12.334 2 -23.001 6c-52.667 24 -118 74.667 -196 152z" />
    <glyph glyph-name="uniFC18" unicode="&#xfea3;&#xfee2;" horiz-adv-x="1686" arabic-form="isolated" 
d="M150 669c38.667 40.667 118.666 79.667 239.999 117c8 88 44.167 170.667 108.5 248s139.5 132.666 225.5 165.999c37.333 26.667 94 51 170 73c86 25.333 144.333 47 175 65c-134.667 98.667 -279 152 -433 160c-66 -10 -134.667 -60 -206 -150c-8 8 -10 20 -6 36
c4 14 9 29.667 15 47c10 32.667 36.667 86.667 80 162c30.667 20.667 62.834 40.834 96.501 60.501s67.834 29.5 102.501 29.5c19.333 0 38 -2 56 -6c40.667 -9.33301 153 -46.333 337 -111c66 -31.333 152 -57 258 -77c175.333 -30.667 265 -47 269 -49
c8 -29.333 -2.66699 -75.333 -32 -138c-26 -55.333 -52.333 -98.333 -79 -129c-125.333 -10 -311 -34.667 -557 -74c-34.667 -8.66699 -69 -16 -103 -22c-39.333 -12 -71.333 -27 -96 -45c0 -17.333 9.33301 -35 28 -53c20 -24.667 32 -41 36 -49
c25.333 -31.333 61.333 -79.333 108 -144l-25 -149c-12 -54.667 -30 -98.667 -54 -132c-23.333 -4 -140.333 -5 -351 -3c-143.333 2 -254 -19.333 -332 -64c-8 -28 -10 -63.667 -6 -107l6 -102c12 -88 25.667 -285.333 41 -592c8 -137.333 3.33301 -218.333 -14 -243
c-8 -24 -22 -48.667 -42 -74c-12.667 21.333 -22.334 47.333 -29.001 78c-6 33.333 -8 59 -6 77c-1.33301 366 -24 638 -68 816c-10 140 19 266 87 378z" />
    <glyph glyph-name="uniFC19" unicode="&#xfea7;&#xfe9e;" horiz-adv-x="1683" arabic-form="isolated" 
d="M1638 -554c-2 -2 -36 -12.667 -102 -32c-24.667 -8.66699 -112.334 -50 -263.001 -124c-105.333 -54 -200.666 -78.333 -285.999 -73c2.66699 -4 -20.666 -6 -69.999 -6c-342.667 0 -587 90.667 -733 272c-83.333 100 -128.333 231.333 -135 394c-16 170 22 338 114 504
c81.333 136.667 227 276 437 418c-24 2.66699 -61.667 6 -113 10c-2 2 -70.667 6.66699 -206 14c-80 4 -145.333 13.667 -196 29c-6 22.667 -3.33301 47.334 8 74.001l31 76c44 79.333 115 152.333 213 219c32 24 121.667 75.667 269 155c84.667 39.333 215 91.333 391 156
l15 16l-179 57c-72 23.333 -133.333 35 -184 35c-62.667 0 -118.667 -17 -168 -51c-22 -34 -59.667 -73.667 -113 -119c-10 6 -13 15.333 -9 28l9 26c19.333 73.333 54 139.333 104 198c57.333 66 119.666 104 186.999 114c23.333 3.33301 48 5 74 5
c55.333 0 126.333 -10.667 213 -32c109.333 -26 180 -41.667 212 -47c64.667 -12 131 -25.333 199 -40c77.333 -15.333 145.333 -20 204 -14c4 -6 6 -11.667 6 -17c0 3.33301 -9.66699 -24.334 -29 -83.001c-8 -8.66699 -25 -36.667 -51 -84
c-20 -34 -40.667 -56.667 -62 -68c-346 -63.333 -599.333 -135.333 -760 -216c-107.333 -32 -213 -85.667 -317 -161c128 -24.667 297 -34.334 507 -29.001c262.667 5.33301 432.667 6.33301 510 3c0 -28.667 -16.667 -69.334 -50 -122.001
c-27.333 -45.333 -54 -81.333 -80 -108c-68 -9.33301 -103.667 -14 -107 -14c-40 -8.66699 -72.333 -19.667 -97 -33c-358.667 -85.333 -616 -235.666 -772 -450.999c-68 -91.333 -98.667 -188.666 -92 -291.999c0 -60.667 12.333 -116 37 -166
c83.333 -157.333 222 -266 416 -326c138.667 -40.667 296.667 -61 474 -61h152c76.667 2 125 3 145 3l273 34c14.667 -7.33301 22 -17 22 -29c0 -22 -16 -36 -48 -42zM744 34l0.000976562 11l158 211h8c56 -60.667 126 -115 210 -163c2.66699 -2.66699 4 -5.66699 4 -9
l-153 -207c-2 -0.666992 -4.66699 -1 -8 -1c-4.66699 0 -12.334 2 -23.001 6c-52.667 24 -118 74.667 -196 152zM936.001 2076l0.000976562 11l158 211h8c56 -60.667 126 -115 210 -163c2.66699 -2.66699 4 -5.66699 4 -9l-153 -207c-2 -0.666992 -4.66699 -1 -8 -1
c-4.66699 0 -12.334 2 -23.001 6c-52.667 24 -118 74.667 -196 152z" />
    <glyph glyph-name="uniFC1A" unicode="&#xfea7;&#xfea2;" horiz-adv-x="1767" arabic-form="isolated" 
d="M1638 -554c-2 -2 -36 -12.667 -102 -32c-24.667 -8.66699 -112.334 -50 -263.001 -124c-105.333 -54 -200.666 -78.333 -285.999 -73c2.66699 -4 -20.666 -6 -69.999 -6c-342.667 0 -587 90.667 -733 272c-83.333 100 -128.333 231.333 -135 394c-16 170 22 338 114 504
c81.333 136.667 227 276 437 418c-24 2.66699 -61.667 6 -113 10c-2 2 -70.667 6.66699 -206 14c-80 4 -145.333 13.667 -196 29c-6 22.667 -3.33301 47.334 8 74.001l31 76c44 79.333 115 152.333 213 219c32 24 121.667 75.667 269 155c84.667 39.333 215 91.333 391 156
l15 16l-179 57c-72 23.333 -133.333 35 -184 35c-62.667 0 -118.667 -17 -168 -51c-22 -34 -59.667 -73.667 -113 -119c-10 6 -13 15.333 -9 28l9 26c19.333 73.333 54 139.333 104 198c57.333 66 119.666 104 186.999 114c23.333 3.33301 48 5 74 5
c55.333 0 126.333 -10.667 213 -32c109.333 -26 180 -41.667 212 -47c64.667 -12 131 -25.333 199 -40c77.333 -15.333 145.333 -20 204 -14c4 -6 6 -11.667 6 -17c0 3.33301 -9.66699 -24.334 -29 -83.001c-8 -8.66699 -25 -36.667 -51 -84
c-20 -34 -40.667 -56.667 -62 -68c-346 -63.333 -599.333 -135.333 -760 -216c-107.333 -32 -213 -85.667 -317 -161c128 -24.667 297 -34.334 507 -29.001c262.667 5.33301 432.667 6.33301 510 3c0 -28.667 -16.667 -69.334 -50 -122.001
c-27.333 -45.333 -54 -81.333 -80 -108c-68 -9.33301 -103.667 -14 -107 -14c-40 -8.66699 -72.333 -19.667 -97 -33c-358.667 -85.333 -616 -235.666 -772 -450.999c-68 -91.333 -98.667 -188.666 -92 -291.999c0 -60.667 12.333 -116 37 -166
c83.333 -157.333 222 -266 416 -326c138.667 -40.667 296.667 -61 474 -61h152c76.667 2 125 3 145 3l273 34c14.667 -7.33301 22 -17 22 -29c0 -22 -16 -36 -48 -42zM921 2071l0.000976562 11l158 211h8c56 -60.667 126 -115 210 -163c2.66699 -2.66699 4 -5.66699 4 -9
l-153 -207c-2 -0.666992 -4.66699 -1 -8 -1c-4.66699 0 -12.334 2 -23.001 6c-52.667 24 -118 74.667 -196 152z" />
    <glyph glyph-name="uniFC1B" unicode="&#xfea7;&#xfee2;" horiz-adv-x="1631" arabic-form="isolated" 
d="M110 669c38.667 40.667 118.666 79.667 239.999 117c8 88 44.167 170.667 108.5 248s139.5 132.666 225.5 165.999c37.333 26.667 94 51 170 73c86 25.333 144.333 47 175 65c-134.667 98.667 -279 152 -433 160c-66 -10 -134.667 -60 -206 -150c-8 8 -10 20 -6 36
c4 14 9 29.667 15 47c10 32.667 36.667 86.667 80 162c30.667 20.667 62.834 40.834 96.501 60.501s67.834 29.5 102.501 29.5c19.333 0 38 -2 56 -6c40.667 -9.33301 153 -46.333 337 -111c66 -31.333 152 -57 258 -77c175.333 -30.667 265 -47 269 -49
c8 -29.333 -2.66699 -75.333 -32 -138c-26 -55.333 -52.333 -98.333 -79 -129c-125.333 -10 -311 -34.667 -557 -74c-34.667 -8.66699 -69 -16 -103 -22c-39.333 -12 -71.333 -27 -96 -45c0 -17.333 9.33301 -35 28 -53c20 -24.667 32 -41 36 -49
c25.333 -31.333 61.333 -79.333 108 -144l-25 -149c-12 -54.667 -30 -98.667 -54 -132c-23.333 -4 -140.333 -5 -351 -3c-143.333 2 -254 -19.333 -332 -64c-8 -28 -10 -63.667 -6 -107l6 -102c12 -88 25.667 -285.333 41 -592c8 -137.333 3.33301 -218.333 -14 -243
c-8 -24 -22 -48.667 -42 -74c-12.667 21.333 -22.334 47.333 -29.001 78c-6 33.333 -8 59 -6 77c-1.33301 366 -24 638 -68 816c-10 140 19 266 87 378zM945.999 1860l0.000976562 11l158 211h8c56 -60.667 126 -115 210 -163c2.66699 -2.66699 4 -5.66699 4 -9l-153 -207
c-2 -0.666992 -4.66699 -1 -8 -1c-4.66699 0 -12.334 2 -23.001 6c-52.667 24 -118 74.667 -196 152z" />
    <glyph glyph-name="uniFC1C" unicode="&#xfeb3;&#xfe9e;" horiz-adv-x="1888" arabic-form="isolated" 
d="M283 618c48 49.333 125.671 114.331 233.004 194.998l-19 14c-66 3.33301 -132.667 7 -200 11c-78 6.66699 -143.667 19.334 -197 38.001c14.667 65.333 25 108.333 31 129c15.333 49.333 32.333 88.333 51 117c116.667 78.667 302 183.667 556 315
c32.667 32 72 77.333 118 136c40 76.667 73.667 125.334 101 146.001c30.667 -15.333 46 -31.666 46 -48.999c44 -170 124.333 -264.333 241 -283c84 -14 156.333 26 217 120l26 55c7.33301 18.667 19.666 26 36.999 22c4.66699 -19.333 16.334 -45 35.001 -77
c30.667 -58 83.334 -87 158.001 -87c16.667 -3.33301 46 6.66699 88 30c-16.667 104.667 -7 187.667 29 249l14 -14c2 -8.66699 6.66699 -31 14 -67c6 -24.667 7 -45.667 3 -63c4 -57.333 6 -107 6 -149c0 -52.667 -3 -95.334 -9 -128.001
c-34 -67.333 -79.667 -106.666 -137 -117.999c-59.333 -4 -110 6.33301 -152 31c-22.667 28.667 -51.334 72 -86.001 130c-9.33301 0 -17.333 -5 -24 -15l-16 -28c-2 -67.333 -49.667 -116.333 -143 -147c-12 -4 -25.667 -6 -41 -6c-49.333 0 -111.333 26 -186 78
c-51.333 68.667 -77 103.667 -77 105c-28.667 42 -47 81.333 -55 118c-3.33301 5.33301 -8 24.333 -14 57c-8 -7.33301 -32.667 -46 -74 -116c-40.667 -46.667 -83 -84.334 -127 -113.001c-24.667 -15.333 -75 -39.333 -151 -72c-82.667 -36 -139.334 -62.333 -170.001 -79
c13.333 -2 34.333 -6.66699 63 -14c133.333 -12.667 403.666 -20.667 810.999 -24c-13.333 -38.667 -29.333 -97 -48 -175c-12 -40 -42.667 -61 -92 -63c-69.333 -2 -110.333 -6.66699 -123 -14c-93.333 -7.33301 -185.333 -24.666 -276 -51.999
c-15.333 -11.333 -38.333 -18.666 -69 -21.999c-128 -54.667 -268.667 -163 -422 -325c-63.333 -93.333 -92.833 -199 -88.5 -317s77.166 -231.667 218.499 -341c206.667 -96.667 411.5 -145 614.5 -145s423.833 20 662.5 60c16 -5.33301 25 -17.333 27 -36
c-191.333 -111.333 -356 -192.666 -494 -243.999c-162.667 -28.667 -294.334 -41.334 -395.001 -38.001c-351.333 13.333 -585 130.666 -701 351.999c-34.667 65.333 -55.334 155.666 -62.001 270.999s4.83301 224.833 34.5 328.5s100.834 208.167 213.501 313.5z
M691.004 120.998l0.000976562 11l158 211h8c56 -60.667 126 -115 210 -163c2.66699 -2.66699 4 -5.66699 4 -9l-153 -207c-2 -0.666992 -4.66699 -1 -8 -1c-4.66699 0 -12.334 2 -23.001 6c-52.667 24 -118 74.667 -196 152z" />
    <glyph glyph-name="uniFC1D" unicode="&#xfeb3;&#xfea2;" horiz-adv-x="1896" arabic-form="isolated" 
d="M283 618c48 49.333 125.671 114.331 233.004 194.998l-19 14c-66 3.33301 -132.667 7 -200 11c-78 6.66699 -143.667 19.334 -197 38.001c14.667 65.333 25 108.333 31 129c15.333 49.333 32.333 88.333 51 117c116.667 78.667 302 183.667 556 315
c32.667 32 72 77.333 118 136c40 76.667 73.667 125.334 101 146.001c30.667 -15.333 46 -31.666 46 -48.999c44 -170 124.333 -264.333 241 -283c84 -14 156.333 26 217 120l26 55c7.33301 18.667 19.666 26 36.999 22c4.66699 -19.333 16.334 -45 35.001 -77
c30.667 -58 83.334 -87 158.001 -87c16.667 -3.33301 46 6.66699 88 30c-16.667 104.667 -7 187.667 29 249l14 -14c2 -8.66699 6.66699 -31 14 -67c6 -24.667 7 -45.667 3 -63c4 -57.333 6 -107 6 -149c0 -52.667 -3 -95.334 -9 -128.001
c-34 -67.333 -79.667 -106.666 -137 -117.999c-59.333 -4 -110 6.33301 -152 31c-22.667 28.667 -51.334 72 -86.001 130c-9.33301 0 -17.333 -5 -24 -15l-16 -28c-2 -67.333 -49.667 -116.333 -143 -147c-12 -4 -25.667 -6 -41 -6c-49.333 0 -111.333 26 -186 78
c-51.333 68.667 -77 103.667 -77 105c-28.667 42 -47 81.333 -55 118c-3.33301 5.33301 -8 24.333 -14 57c-8 -7.33301 -32.667 -46 -74 -116c-40.667 -46.667 -83 -84.334 -127 -113.001c-24.667 -15.333 -75 -39.333 -151 -72c-82.667 -36 -139.334 -62.333 -170.001 -79
c13.333 -2 34.333 -6.66699 63 -14c133.333 -12.667 403.666 -20.667 810.999 -24c-13.333 -38.667 -29.333 -97 -48 -175c-12 -40 -42.667 -61 -92 -63c-69.333 -2 -110.333 -6.66699 -123 -14c-93.333 -7.33301 -185.333 -24.666 -276 -51.999
c-15.333 -11.333 -38.333 -18.666 -69 -21.999c-128 -54.667 -268.667 -163 -422 -325c-63.333 -93.333 -92.833 -199 -88.5 -317s77.166 -231.667 218.499 -341c206.667 -96.667 411.5 -145 614.5 -145s423.833 20 662.5 60c16 -5.33301 25 -17.333 27 -36
c-191.333 -111.333 -356 -192.666 -494 -243.999c-162.667 -28.667 -294.334 -41.334 -395.001 -38.001c-351.333 13.333 -585 130.666 -701 351.999c-34.667 65.333 -55.334 155.666 -62.001 270.999s4.83301 224.833 34.5 328.5s100.834 208.167 213.501 313.5z" />
    <glyph glyph-name="uniFC1E" unicode="&#xfeb3;&#xfea6;" horiz-adv-x="1888" arabic-form="isolated" 
d="M283 618c48 49.333 125.671 114.331 233.004 194.998l-19 14c-66 3.33301 -132.667 7 -200 11c-78 6.66699 -143.667 19.334 -197 38.001c14.667 65.333 25 108.333 31 129c15.333 49.333 32.333 88.333 51 117c116.667 78.667 302 183.667 556 315
c32.667 32 72 77.333 118 136c40 76.667 73.667 125.334 101 146.001c30.667 -15.333 46 -31.666 46 -48.999c44 -170 124.333 -264.333 241 -283c84 -14 156.333 26 217 120l26 55c7.33301 18.667 19.666 26 36.999 22c4.66699 -19.333 16.334 -45 35.001 -77
c30.667 -58 83.334 -87 158.001 -87c16.667 -3.33301 46 6.66699 88 30c-16.667 104.667 -7 187.667 29 249l14 -14c2 -8.66699 6.66699 -31 14 -67c6 -24.667 7 -45.667 3 -63c4 -57.333 6 -107 6 -149c0 -52.667 -3 -95.334 -9 -128.001
c-34 -67.333 -79.667 -106.666 -137 -117.999c-59.333 -4 -110 6.33301 -152 31c-22.667 28.667 -51.334 72 -86.001 130c-9.33301 0 -17.333 -5 -24 -15l-16 -28c-2 -67.333 -49.667 -116.333 -143 -147c-12 -4 -25.667 -6 -41 -6c-49.333 0 -111.333 26 -186 78
c-51.333 68.667 -77 103.667 -77 105c-28.667 42 -47 81.333 -55 118c-3.33301 5.33301 -8 24.333 -14 57c-8 -7.33301 -32.667 -46 -74 -116c-40.667 -46.667 -83 -84.334 -127 -113.001c-24.667 -15.333 -75 -39.333 -151 -72c-82.667 -36 -139.334 -62.333 -170.001 -79
c13.333 -2 34.333 -6.66699 63 -14c133.333 -12.667 403.666 -20.667 810.999 -24c-13.333 -38.667 -29.333 -97 -48 -175c-12 -40 -42.667 -61 -92 -63c-69.333 -2 -110.333 -6.66699 -123 -14c-93.333 -7.33301 -185.333 -24.666 -276 -51.999
c-15.333 -11.333 -38.333 -18.666 -69 -21.999c-128 -54.667 -268.667 -163 -422 -325c-63.333 -93.333 -92.833 -199 -88.5 -317s77.166 -231.667 218.499 -341c206.667 -96.667 411.5 -145 614.5 -145s423.833 20 662.5 60c16 -5.33301 25 -17.333 27 -36
c-191.333 -111.333 -356 -192.666 -494 -243.999c-162.667 -28.667 -294.334 -41.334 -395.001 -38.001c-351.333 13.333 -585 130.666 -701 351.999c-34.667 65.333 -55.334 155.666 -62.001 270.999s4.83301 224.833 34.5 328.5s100.834 208.167 213.501 313.5z
M252.004 1623l0.000976562 11l158 211h8c56 -60.667 126 -115 210 -163c2.66699 -2.66699 4 -5.66699 4 -9l-153 -207c-2 -0.666992 -4.66699 -1 -8 -1c-4.66699 0 -12.334 2 -23.001 6c-52.667 24 -118 74.667 -196 152z" />
    <glyph glyph-name="uniFC1F" unicode="&#xfeb3;&#xfee2;" horiz-adv-x="2055" arabic-form="isolated" 
d="M136 532c26.667 32.667 62.501 56.832 107.501 72.499s89.167 29.5 132.5 41.5c-2 44.667 8 93.667 30 147l61 135c152 168 321 252 507 252c27.333 0 54 -2 80 -6c14.667 -6 30 -13.5 46 -22.5s26 -21.167 30 -36.5c0 -16 -4 -38 -12 -66s-12 -48 -12 -60
c0 -14 3 -26 9 -36l-3 -6c80 -116.667 162 -175 246 -175c66 0 123.667 28.333 173 85l109 167h23c-8 -19.333 -12 -36 -12 -50c0 -10 16 -45 48 -105c18.667 -24 52.667 -46.333 102 -67c40.667 -4 81.667 14.333 123 55c2 19.333 -2 64.333 -12 135c10 60 22 104 36 132
c30.667 -46.667 50 -105.667 58 -177c5.33301 -49.333 5.66602 -93.666 0.999023 -132.999c-6 -57.333 -15.333 -102.333 -28 -135c-2 -59.333 -51.333 -111.333 -148 -156c-65.333 -8 -129 27 -191 105c-4 8 -15 47.333 -33 118c-30.667 -46.667 -60 -94.667 -88 -144
c-39.333 -56.667 -84 -92.667 -134 -108c-164 -14.667 -263.667 27.333 -299 126c-27.333 39.333 -36 118.333 -26 237c-36 33.333 -85 50 -147 50c-68 0 -133.667 -16.667 -197 -50v-6l200 -205c-4 -25.333 -7 -59.333 -9 -102l-9 -12c6 -35.333 -6.66699 -92 -38 -170
c-40.667 -4 -89.667 -6 -147 -6c-20.667 0 -52.667 1 -96 3h-97c-158 0 -278 -23.333 -360 -70c-12 -22 -17 -50.667 -15 -86c6 -56.667 9 -86 9 -88c10 -13.333 16.667 -35.166 20 -65.499s9 -51.5 17 -63.5c2 -11.333 1 -26 -3 -44c8 -16.667 13.5 -42.334 16.5 -77.001
s6.5 -58 10.5 -70l35 -196c14 -82 21 -150.667 21 -206c0 -94 -18.667 -172 -56 -234l-3 6l-9 -12c-8 25.333 -12 53 -12 83c-11.333 46.667 -18 77.667 -20 93c-12 132.667 -40.667 294 -86 484c-25.333 123.333 -38 240 -38 350c0 94 9 184.333 27 271z" />
    <glyph glyph-name="uniFC20" unicode="&#xfebb;&#xfea2;" horiz-adv-x="2393" arabic-form="isolated" 
d="M2260 1523c-134.667 -60 -298.667 -96 -492 -108c-118.667 -6 -193 -2 -223 12v25c112 145.333 249 218 411 218c118.667 0 220 -44 304 -132v-15zM1246 1049c-268 -4 -518 12.333 -750 49c27.333 19.333 70.333 38 129 56c72 22.667 118 39 138 49
c99.333 47.333 191 145.333 275 294c6 13.333 14 22 24 26c18.667 -68 42 -126.667 70 -176l158 -159c-9.33301 -24.667 -27 -54.667 -53 -90c49.333 2 92.333 22.667 129 62c98 -24 203.667 -36 317 -36c172 0 325.333 27.333 460 82c104 22 173.667 118 209 288
c10.667 25.333 16 53.333 16 84c0 39.333 -10.333 89.333 -31 150c-96 123.333 -219 178 -369 164c-43.333 -5.33301 -120 -31.333 -230 -78c-70 -47.333 -170.333 -171 -301 -371c-6 -2 -12 -3 -18 -3c-31.333 0 -73.333 21.667 -126 65c-105.333 84 -158 158.333 -158 223
c0 12 1 24.667 3 38c0 28 -8 42 -24 42c-6 0 -12 -2 -18 -6l-49 -120c-47.333 -114 -133.333 -200 -258 -258c-107.333 -43.333 -263 -114 -467 -212c-52 -26.667 -88 -60.667 -108 -102c-20.667 -50.667 -43 -127 -67 -229c58.667 -29.333 191.667 -55 399 -77
c22.667 2 56.667 -1.33301 102 -10c-7.33301 -4 -27 -14 -59 -30c-172 -86 -307.333 -215 -406 -387c-105.333 -152 -148.333 -332.667 -129 -542c6.66699 -120 35.667 -229.333 87 -328c56.667 -108 137 -184.667 241 -230c193.333 -82 397.333 -123 612 -123
c199.333 0 368.333 43 507 129l231 143c20 12 40.667 32 62 60c-39.333 -2 -113.333 -10 -222 -24c-86 -12 -159.667 -17 -221 -15c-268.667 4 -453 14 -553 30c-176 26 -322.667 78 -440 156c-150.667 98.667 -216 225.667 -196 381c0 62 16 132.167 48 210.5
s66 135.5 102 171.5s105 93 207 171c90 61.333 204.333 111.333 343 150c43.333 13.333 167.333 40 372 80c6 2.66699 28.667 4 68 4c28.667 0 48 9 58 27c26 49.333 44.667 86.333 56 111c20 47.333 32 85 36 113z" />
    <glyph glyph-name="uniFC21" unicode="&#xfebb;&#xfee2;" horiz-adv-x="2261" arabic-form="isolated" 
d="M207 562c21.333 10 84.002 23.998 188.002 41.998l61 184c27.333 72 59 129.667 95 173c168 194.667 336 292 504 292c30.667 0 62.667 -3.66699 96 -11c13.333 -6 17 -27.5 11 -64.5s-10.667 -71.167 -14 -102.5c76 -90 143.333 -138.667 202 -146l135 216
c55.333 80 115 140.667 179 182c86 54.667 163.333 76 232 64c140 -8.66699 239.667 -51.667 299 -129c22.667 -44.667 36.334 -96.667 41 -156c-4.66699 -96.667 -29.334 -187 -74.001 -271c-61.333 -122.667 -181.333 -189.334 -360 -200.001
c-139.333 -27.333 -308.333 -23.333 -507 12c-16 0 -30.667 -21.333 -44 -64c-9.33301 -60 -29.666 -92.667 -60.999 -98c-16.667 6.66699 -23.334 19.334 -20.001 38.001c8.66699 56.667 20.667 98 36 124c0 27.333 -16.333 53 -49 77c-52.667 52 -82.834 103 -90.501 153
s-14.5 88 -20.5 114c-201.333 8.66699 -350 -43.333 -446 -156c66 -29.333 134.833 -57.166 206.5 -83.499s125.834 -68.166 162.501 -125.499c-10 -64 -30.333 -157.333 -61 -280c-33.333 -4 -122.333 -4.5 -267 -1.5s-304.667 -23.167 -480 -78.5
c-4 -6 -11 -30.333 -21 -73c4.66699 -61.333 12 -144.333 22 -249c12 -118 19.333 -203.667 22 -257c0 -32.667 2.5 -84.5 7.5 -155.5s7.5 -124.5 7.5 -160.5c-6.66699 -101.333 -24.334 -185.333 -53.001 -252l-21 -17c-8 11.333 -13.667 62.5 -17 153.5
s-19 257.5 -47 499.5c-12 114 -18 215 -18 303c-12 166 10.667 308.333 68 427c18 36 50 61.667 96 77zM1433 907.998l190 -9c205.333 0 376.333 40 513 120c-45.333 66.667 -140.333 111.667 -285 135c-98.667 0 -207 -41 -325 -123
c-41.333 -34.667 -72.333 -75.667 -93 -123z" />
    <glyph glyph-name="uniFC22" unicode="&#xfebf;&#xfe9e;" horiz-adv-x="2407" arabic-form="isolated" 
d="M2260 1523c-134.667 -60 -298.667 -96 -492 -108c-118.667 -6 -193 -2 -223 12v25c112 145.333 249 218 411 218c118.667 0 220 -44 304 -132v-15zM1246 1049c-268 -4 -518 12.333 -750 49c27.333 19.333 70.333 38 129 56c72 22.667 118 39 138 49
c99.333 47.333 191 145.333 275 294c6 13.333 14 22 24 26c18.667 -68 42 -126.667 70 -176l158 -159c-9.33301 -24.667 -27 -54.667 -53 -90c49.333 2 92.333 22.667 129 62c98 -24 203.667 -36 317 -36c172 0 325.333 27.333 460 82c104 22 173.667 118 209 288
c10.667 25.333 16 53.333 16 84c0 39.333 -10.333 89.333 -31 150c-96 123.333 -219 178 -369 164c-43.333 -5.33301 -120 -31.333 -230 -78c-70 -47.333 -170.333 -171 -301 -371c-6 -2 -12 -3 -18 -3c-31.333 0 -73.333 21.667 -126 65c-105.333 84 -158 158.333 -158 223
c0 12 1 24.667 3 38c0 28 -8 42 -24 42c-6 0 -12 -2 -18 -6l-49 -120c-47.333 -114 -133.333 -200 -258 -258c-107.333 -43.333 -263 -114 -467 -212c-52 -26.667 -88 -60.667 -108 -102c-20.667 -50.667 -43 -127 -67 -229c58.667 -29.333 191.667 -55 399 -77
c22.667 2 56.667 -1.33301 102 -10c-7.33301 -4 -27 -14 -59 -30c-172 -86 -307.333 -215 -406 -387c-105.333 -152 -148.333 -332.667 -129 -542c6.66699 -120 35.667 -229.333 87 -328c56.667 -108 137 -184.667 241 -230c193.333 -82 397.333 -123 612 -123
c199.333 0 368.333 43 507 129l231 143c20 12 40.667 32 62 60c-39.333 -2 -113.333 -10 -222 -24c-86 -12 -159.667 -17 -221 -15c-268.667 4 -453 14 -553 30c-176 26 -322.667 78 -440 156c-150.667 98.667 -216 225.667 -196 381c0 62 16 132.167 48 210.5
s66 135.5 102 171.5s105 93 207 171c90 61.333 204.333 111.333 343 150c43.333 13.333 167.333 40 372 80c6 2.66699 28.667 4 68 4c28.667 0 48 9 58 27c26 49.333 44.667 86.333 56 111c20 47.333 32 85 36 113zM848 -15l0.000976562 11l158 211h8
c56 -60.667 126 -115 210 -163c2.66699 -2.66699 4 -5.66699 4 -9l-153 -207c-2 -0.666992 -4.66699 -1 -8 -1c-4.66699 0 -12.334 2 -23.001 6c-52.667 24 -118 74.667 -196 152zM1378 2035l0.000976562 11l158 211h8c56 -60.667 126 -115 210 -163
c2.66699 -2.66699 4 -5.66699 4 -9l-153 -207c-2 -0.666992 -4.66699 -1 -8 -1c-4.66699 0 -12.334 2 -23.001 6c-52.667 24 -118 74.667 -196 152z" />
    <glyph glyph-name="uniFC23" unicode="&#xfebf;&#xfea2;" horiz-adv-x="2401" arabic-form="isolated" 
d="M2260 1523c-134.667 -60 -298.667 -96 -492 -108c-118.667 -6 -193 -2 -223 12v25c112 145.333 249 218 411 218c118.667 0 220 -44 304 -132v-15zM1246 1049c-268 -4 -518 12.333 -750 49c27.333 19.333 70.333 38 129 56c72 22.667 118 39 138 49
c99.333 47.333 191 145.333 275 294c6 13.333 14 22 24 26c18.667 -68 42 -126.667 70 -176l158 -159c-9.33301 -24.667 -27 -54.667 -53 -90c49.333 2 92.333 22.667 129 62c98 -24 203.667 -36 317 -36c172 0 325.333 27.333 460 82c104 22 173.667 118 209 288
c10.667 25.333 16 53.333 16 84c0 39.333 -10.333 89.333 -31 150c-96 123.333 -219 178 -369 164c-43.333 -5.33301 -120 -31.333 -230 -78c-70 -47.333 -170.333 -171 -301 -371c-6 -2 -12 -3 -18 -3c-31.333 0 -73.333 21.667 -126 65c-105.333 84 -158 158.333 -158 223
c0 12 1 24.667 3 38c0 28 -8 42 -24 42c-6 0 -12 -2 -18 -6l-49 -120c-47.333 -114 -133.333 -200 -258 -258c-107.333 -43.333 -263 -114 -467 -212c-52 -26.667 -88 -60.667 -108 -102c-20.667 -50.667 -43 -127 -67 -229c58.667 -29.333 191.667 -55 399 -77
c22.667 2 56.667 -1.33301 102 -10c-7.33301 -4 -27 -14 -59 -30c-172 -86 -307.333 -215 -406 -387c-105.333 -152 -148.333 -332.667 -129 -542c6.66699 -120 35.667 -229.333 87 -328c56.667 -108 137 -184.667 241 -230c193.333 -82 397.333 -123 612 -123
c199.333 0 368.333 43 507 129l231 143c20 12 40.667 32 62 60c-39.333 -2 -113.333 -10 -222 -24c-86 -12 -159.667 -17 -221 -15c-268.667 4 -453 14 -553 30c-176 26 -322.667 78 -440 156c-150.667 98.667 -216 225.667 -196 381c0 62 16 132.167 48 210.5
s66 135.5 102 171.5s105 93 207 171c90 61.333 204.333 111.333 343 150c43.333 13.333 167.333 40 372 80c6 2.66699 28.667 4 68 4c28.667 0 48 9 58 27c26 49.333 44.667 86.333 56 111c20 47.333 32 85 36 113zM1361 2031l0.000976562 11l158 211h8
c56 -60.667 126 -115 210 -163c2.66699 -2.66699 4 -5.66699 4 -9l-153 -207c-2 -0.666992 -4.66699 -1 -8 -1c-4.66699 0 -12.334 2 -23.001 6c-52.667 24 -118 74.667 -196 152z" />
    <glyph glyph-name="uniFC24" unicode="&#xfebf;&#xfea6;" horiz-adv-x="2395" arabic-form="isolated" 
d="M2260 1523c-134.667 -60 -298.667 -96 -492 -108c-118.667 -6 -193 -2 -223 12v25c112 145.333 249 218 411 218c118.667 0 220 -44 304 -132v-15zM1246 1049c-268 -4 -518 12.333 -750 49c27.333 19.333 70.333 38 129 56c72 22.667 118 39 138 49
c99.333 47.333 191 145.333 275 294c6 13.333 14 22 24 26c18.667 -68 42 -126.667 70 -176l158 -159c-9.33301 -24.667 -27 -54.667 -53 -90c49.333 2 92.333 22.667 129 62c98 -24 203.667 -36 317 -36c172 0 325.333 27.333 460 82c104 22 173.667 118 209 288
c10.667 25.333 16 53.333 16 84c0 39.333 -10.333 89.333 -31 150c-96 123.333 -219 178 -369 164c-43.333 -5.33301 -120 -31.333 -230 -78c-70 -47.333 -170.333 -171 -301 -371c-6 -2 -12 -3 -18 -3c-31.333 0 -73.333 21.667 -126 65c-105.333 84 -158 158.333 -158 223
c0 12 1 24.667 3 38c0 28 -8 42 -24 42c-6 0 -12 -2 -18 -6l-49 -120c-47.333 -114 -133.333 -200 -258 -258c-107.333 -43.333 -263 -114 -467 -212c-52 -26.667 -88 -60.667 -108 -102c-20.667 -50.667 -43 -127 -67 -229c58.667 -29.333 191.667 -55 399 -77
c22.667 2 56.667 -1.33301 102 -10c-7.33301 -4 -27 -14 -59 -30c-172 -86 -307.333 -215 -406 -387c-105.333 -152 -148.333 -332.667 -129 -542c6.66699 -120 35.667 -229.333 87 -328c56.667 -108 137 -184.667 241 -230c193.333 -82 397.333 -123 612 -123
c199.333 0 368.333 43 507 129l231 143c20 12 40.667 32 62 60c-39.333 -2 -113.333 -10 -222 -24c-86 -12 -159.667 -17 -221 -15c-268.667 4 -453 14 -553 30c-176 26 -322.667 78 -440 156c-150.667 98.667 -216 225.667 -196 381c0 62 16 132.167 48 210.5
s66 135.5 102 171.5s105 93 207 171c90 61.333 204.333 111.333 343 150c43.333 13.333 167.333 40 372 80c6 2.66699 28.667 4 68 4c28.667 0 48 9 58 27c26 49.333 44.667 86.333 56 111c20 47.333 32 85 36 113zM300 1623l0.000976562 11l158 211h8
c56 -60.667 126 -115 210 -163c2.66699 -2.66699 4 -5.66699 4 -9l-153 -207c-2 -0.666992 -4.66699 -1 -8 -1c-4.66699 0 -12.334 2 -23.001 6c-52.667 24 -118 74.667 -196 152zM1332 1987l0.000976562 11l158 211h8c56 -60.667 126 -115 210 -163
c2.66699 -2.66699 4 -5.66699 4 -9l-153 -207c-2 -0.666992 -4.66699 -1 -8 -1c-4.66699 0 -12.334 2 -23.001 6c-52.667 24 -118 74.667 -196 152z" />
    <glyph glyph-name="uniFC25" unicode="&#xfebf;&#xfee2;" horiz-adv-x="2246" arabic-form="isolated" 
d="M177 562c21.333 10 84.002 23.998 188.002 41.998l61 184c27.333 72 59 129.667 95 173c168 194.667 336 292 504 292c30.667 0 62.667 -3.66699 96 -11c13.333 -6 17 -27.5 11 -64.5s-10.667 -71.167 -14 -102.5c76 -90 143.333 -138.667 202 -146l135 216
c55.333 80 115 140.667 179 182c86 54.667 163.333 76 232 64c140 -8.66699 239.667 -51.667 299 -129c22.667 -44.667 36.334 -96.667 41 -156c-4.66699 -96.667 -29.334 -187 -74.001 -271c-61.333 -122.667 -181.333 -189.334 -360 -200.001
c-139.333 -27.333 -308.333 -23.333 -507 12c-16 0 -30.667 -21.333 -44 -64c-9.33301 -60 -29.666 -92.667 -60.999 -98c-16.667 6.66699 -23.334 19.334 -20.001 38.001c8.66699 56.667 20.667 98 36 124c0 27.333 -16.333 53 -49 77c-52.667 52 -82.834 103 -90.501 153
s-14.5 88 -20.5 114c-201.333 8.66699 -350 -43.333 -446 -156c66 -29.333 134.833 -57.166 206.5 -83.499s125.834 -68.166 162.501 -125.499c-10 -64 -30.333 -157.333 -61 -280c-33.333 -4 -122.333 -4.5 -267 -1.5s-304.667 -23.167 -480 -78.5
c-4 -6 -11 -30.333 -21 -73c4.66699 -61.333 12 -144.333 22 -249c12 -118 19.333 -203.667 22 -257c0 -32.667 2.5 -84.5 7.5 -155.5s7.5 -124.5 7.5 -160.5c-6.66699 -101.333 -24.334 -185.333 -53.001 -252l-21 -17c-8 11.333 -13.667 62.5 -17 153.5
s-19 257.5 -47 499.5c-12 114 -18 215 -18 303c-12 166 10.667 308.333 68 427c18 36 50 61.667 96 77zM1403 907.998l190 -9c205.333 0 376.333 40 513 120c-45.333 66.667 -140.333 111.667 -285 135c-98.667 0 -207 -41 -325 -123
c-41.333 -34.667 -72.333 -75.667 -93 -123zM1300 1546l0.000976562 11l158 211h8c56 -60.667 126 -115 210 -163c2.66699 -2.66699 4 -5.66699 4 -9l-153 -207c-2 -0.666992 -4.66699 -1 -8 -1c-4.66699 0 -12.334 2 -23.001 6c-52.667 24 -118 74.667 -196 152z" />
    <glyph glyph-name="uniFC29" unicode="&#xfecb;&#xfe9e;" horiz-adv-x="1782" arabic-form="isolated" 
d="M209 372c79.333 145.333 225.336 263.001 438.003 353.001l-12 13c-60.667 0 -152 4 -274 12s-213.667 12 -275 12c-6.66699 10 -3.33398 57.833 9.99902 143.5s72.666 155.5 177.999 209.5l241 157c-86 72 -133 152 -141 240c-16.667 94 -10.334 183 18.999 267
c43.333 130 103 211.667 179 245c46.667 20 87.667 30 123 30c150 2 310.667 -78.667 482 -242c-3.33301 -33.333 -35.333 -30.333 -96 9c-72 25.333 -148.667 38 -230 38c-186.667 0 -313.667 -46 -381 -138c-12.667 -16 -10.667 -31.667 6 -47
c82 -106 200.667 -171.333 356 -196c176 4 381 55.333 615 154c4 -4.66699 6 -11 6 -19c0 -22 -8.33301 -55 -25 -99s-32 -74.667 -46 -92c-28.667 -32.667 -108.667 -70.5 -240 -113.5s-347.333 -120.5 -648 -232.5c-26.667 -8 -57 -27.667 -91 -59
c460.667 -33.333 773.667 -33.333 939 0l64 -6c-46.667 -158 -100.667 -241 -162 -249c-110.667 -2 -289 -50 -535 -144c-49.333 -18.667 -143 -74 -281 -166c-171.333 -170.667 -262.333 -339.667 -273 -507c0 -34.667 4 -69 12 -103c15.333 -103.333 71 -192 167 -266
c90.667 -70.667 191 -115.667 301 -135c213.333 -36 415.333 -52 606 -48c82 2 200.667 14 356 36c68 10 118.333 14 151 12c6 -18 -6.33301 -36 -37 -54c-49.333 -40.667 -153 -98.334 -311 -173.001c-146.667 -68.667 -318.667 -103 -516 -103
c-220.667 -13.333 -414 37 -580 151s-252.333 303.667 -259 569c-13.333 136 10 266 70 390zM825.003 -23.999l0.000976562 11l158 210h8c56 -60.667 126 -115 210 -163c2.66699 -2.66699 4 -5.66699 4 -9l-153 -206c-2 -0.666992 -4.66699 -1 -8 -1
c-4.66699 0 -12.334 2 -23.001 6c-52.667 24 -118 74.667 -196 152z" />
    <glyph glyph-name="uniFC2A" unicode="&#xfecb;&#xfee2;" horiz-adv-x="2944" arabic-form="isolated" 
d="M2842 384c-36.667 -28.667 -102.998 -54 -198.998 -76c-131.333 -35.333 -331 -82 -599 -140c-168 -28 -340.333 -28 -517 0c-30 11.333 -75 30 -135 56c-18 -28 -46.667 -69 -86 -123c-92 -98 -195.333 -147 -310 -147c-69.333 0 -137.5 19 -204.5 57
s-113.5 87.333 -139.5 148c-16.667 -12 -38.334 -38 -65.001 -78s-57.334 -65 -92.001 -75c-174 -56.667 -326 -95.667 -456 -117c-9.33301 7.33301 -14 16 -14 26c80 58.667 182.667 125 308 199c198 116 303.333 177 316 183c26 142 51.667 243.667 77 305
c46.667 108.667 116 181.667 208 219c19.333 4 37 6 53 6c82 0 177 -52.667 285 -158c118.667 -114 211 -178.333 277 -193c82 -31.333 150.667 -47 206 -47c34.667 0 65 5.66699 91 17c-6 20 -16 49.333 -30 88c-24.667 242.667 27.333 425 156 547
c74 51.333 153 77 237 77c82 0 171 -29.667 267 -89c100.667 -68 180.667 -136.667 240 -206c0 -16 -7 -26 -21 -30c-180.667 78 -315 117 -403 117c-43.333 0 -85.333 -5.66699 -126 -17c-94 -4 -169.667 -40.333 -227 -109c-12 -19.333 -18 -39 -18 -59
c0 -36.667 21.667 -75.667 65 -117l103 -93c90 -34 183.667 -51 281 -51c98 0 207.333 18 328 54c10 0 83.667 21.667 221 65c0 -40 -25.667 -119.667 -77 -239zM1294 285c-20.667 12 -71 57 -151 135c-59.333 58 -114.333 92 -165 102c-70 6 -130.667 -11.333 -182 -52
c0 -27.333 -2 -47 -6 -59c22 -34.667 57 -65 105 -91l126 -62c129.333 -12.667 220.333 -3.66699 273 27z" />
    <glyph glyph-name="uniFC2B" unicode="&#xfecf;&#xfe9e;" horiz-adv-x="1759" arabic-form="isolated" 
d="M209 372c79.333 145.333 225.336 263.001 438.003 353.001l-12 13c-60.667 0 -152 4 -274 12s-213.667 12 -275 12c-6.66699 10 -3.33398 57.833 9.99902 143.5s72.666 155.5 177.999 209.5l241 157c-86 72 -133 152 -141 240c-16.667 94 -10.334 183 18.999 267
c43.333 130 103 211.667 179 245c46.667 20 87.667 30 123 30c150 2 310.667 -78.667 482 -242c-3.33301 -33.333 -35.333 -30.333 -96 9c-72 25.333 -148.667 38 -230 38c-186.667 0 -313.667 -46 -381 -138c-12.667 -16 -10.667 -31.667 6 -47
c82 -106 200.667 -171.333 356 -196c176 4 381 55.333 615 154c4 -4.66699 6 -11 6 -19c0 -22 -8.33301 -55 -25 -99s-32 -74.667 -46 -92c-28.667 -32.667 -108.667 -70.5 -240 -113.5s-347.333 -120.5 -648 -232.5c-26.667 -8 -57 -27.667 -91 -59
c460.667 -33.333 773.667 -33.333 939 0l64 -6c-46.667 -158 -100.667 -241 -162 -249c-110.667 -2 -289 -50 -535 -144c-49.333 -18.667 -143 -74 -281 -166c-171.333 -170.667 -262.333 -339.667 -273 -507c0 -34.667 4 -69 12 -103c15.333 -103.333 71 -192 167 -266
c90.667 -70.667 191 -115.667 301 -135c213.333 -36 415.333 -52 606 -48c82 2 200.667 14 356 36c68 10 118.333 14 151 12c6 -18 -6.33301 -36 -37 -54c-49.333 -40.667 -153 -98.334 -311 -173.001c-146.667 -68.667 -318.667 -103 -516 -103
c-220.667 -13.333 -414 37 -580 151s-252.333 303.667 -259 569c-13.333 136 10 266 70 390zM825.003 -23.999l0.000976562 11l158 210h8c56 -60.667 126 -115 210 -163c2.66699 -2.66699 4 -5.66699 4 -9l-153 -206c-2 -0.666992 -4.66699 -1 -8 -1
c-4.66699 0 -12.334 2 -23.001 6c-52.667 24 -118 74.667 -196 152zM546.004 2305l0.000976562 11l158 211h8c56 -60.667 126 -115 210 -163c2.66699 -2.66699 4 -5.66699 4 -9l-153 -207c-2 -0.666992 -4.66699 -1 -8 -1c-4.66699 0 -12.334 2 -23.001 6
c-52.667 24 -118 74.667 -196 152z" />
    <glyph glyph-name="uniFC2C" unicode="&#xfecf;&#xfee2;" horiz-adv-x="2944" arabic-form="isolated" 
d="M2842 384c-36.667 -28.667 -102.998 -54 -198.998 -76c-131.333 -35.333 -331 -82 -599 -140c-168 -28 -340.333 -28 -517 0c-30 11.333 -75 30 -135 56c-18 -28 -46.667 -69 -86 -123c-92 -98 -195.333 -147 -310 -147c-69.333 0 -137.5 19 -204.5 57
s-113.5 87.333 -139.5 148c-16.667 -12 -38.334 -38 -65.001 -78s-57.334 -65 -92.001 -75c-174 -56.667 -326 -95.667 -456 -117c-9.33301 7.33301 -14 16 -14 26c80 58.667 182.667 125 308 199c198 116 303.333 177 316 183c26 142 51.667 243.667 77 305
c46.667 108.667 116 181.667 208 219c19.333 4 37 6 53 6c82 0 177 -52.667 285 -158c118.667 -114 211 -178.333 277 -193c82 -31.333 150.667 -47 206 -47c34.667 0 65 5.66699 91 17c-6 20 -16 49.333 -30 88c-24.667 242.667 27.333 425 156 547
c74 51.333 153 77 237 77c82 0 171 -29.667 267 -89c100.667 -68 180.667 -136.667 240 -206c0 -16 -7 -26 -21 -30c-180.667 78 -315 117 -403 117c-43.333 0 -85.333 -5.66699 -126 -17c-94 -4 -169.667 -40.333 -227 -109c-12 -19.333 -18 -39 -18 -59
c0 -36.667 21.667 -75.667 65 -117l103 -93c90 -34 183.667 -51 281 -51c98 0 207.333 18 328 54c10 0 83.667 21.667 221 65c0 -40 -25.667 -119.667 -77 -239zM1294 285c-20.667 12 -71 57 -151 135c-59.333 58 -114.333 92 -165 102c-70 6 -130.667 -11.333 -182 -52
c0 -27.333 -2 -47 -6 -59c22 -34.667 57 -65 105 -91l126 -62c129.333 -12.667 220.333 -3.66699 273 27zM1891 1393v11l158 211h8c56 -60.667 126 -115 210 -163c2.66699 -2.66699 4 -5.66699 4 -9l-153 -207c-2 -0.666992 -4.66699 -1 -8 -1c-4.66699 0 -12.334 2 -23 6
c-52.667 24 -118 74.667 -196 152z" />
    <glyph glyph-name="uniFC2D" unicode="&#xfed3;&#xfe9e;" horiz-adv-x="1743" arabic-form="isolated" 
d="M1609 -476c-44.667 -35.333 -90.5 -69.333 -137.5 -102s-119.5 -66.334 -217.5 -101.001c-323.333 -82 -583.333 -84.667 -780 -8c-86 30 -166 78.833 -240 146.5s-123 142.5 -147 224.5c-44.667 96 -63.334 228 -56.001 396c32 314.667 172 549 420 703
c19.333 10 45.333 27.667 78 53c-68 2 -166.333 10 -295 24c-74 -2 -144.667 3 -212 15c0 18.667 6 43.667 18 75c16 40.667 25 65 27 73c31.333 102 106.333 184 225 246l320 126c18 8 104 29.667 258 65c104 22 181.333 58.333 232 109c-12 41.333 -28 64 -48 68
c-30.667 -34 -76.667 -54.667 -138 -62c-22.667 -2 -75 0 -157 6c-80 27.333 -127 73 -141 137c-16 22 -16 76 0 162c14 88 22 136 24 144c16.667 54 45.667 93 87 117c44.667 16.667 85.667 25 123 25c52.667 0 103.667 -19.333 153 -58c74 -58 125 -143 153 -255
c12.667 -56 19 -106.667 19 -152c0 -56.667 -11.333 -126 -34 -208c-57.333 -100 -154.333 -171.667 -291 -215c-121.333 -26.667 -242.333 -54.667 -363 -84c-43.333 -10 -97 -28 -161 -54l17 -16c84 -12 179 -18 285 -18c78 0 188.333 4 331 12
c154 10 263.667 16.333 329 19c8.66699 0 23.334 2 44.001 6s37 5 49 3c0 -16.667 -10.667 -43.667 -32 -81l-41 -74c-13.333 -23.333 -30 -54.666 -50 -93.999c-221.333 -28.667 -434.333 -80 -639 -154c-76 -45.333 -140.667 -86.333 -194 -123
c-176 -153.333 -270 -316 -282 -488c-13.333 -130.667 43 -251.667 169 -363c93.333 -94 211 -156.333 353 -187c247.333 -34.667 473.333 -39.667 678 -15c70 6 170.667 20.333 302 43c4 -2 13.667 -4 29 -6s23 -7.33301 23 -16c0 -4 -1 -9 -3 -15zM685 2428
l0.000976562 11l158 211h8c56 -60.667 126 -115 210 -163c2.66699 -2.66699 4 -5.66699 4 -9l-153 -207c-2 -0.666992 -4.66699 -1 -8 -1c-4.66699 0 -12.334 2 -23.001 6c-52.667 24 -118 74.667 -196 152zM786.001 75l0.000976562 11l158 211h8
c56 -60.667 126 -115 210 -163c2.66699 -2.66699 4 -5.66699 4 -9l-153 -207c-2 -0.666992 -4.66699 -1 -8 -1c-4.66699 0 -12.334 2 -23.001 6c-52.667 24 -118 74.667 -196 152z" />
    <glyph glyph-name="uniFC2E" unicode="&#xfed3;&#xfea2;" horiz-adv-x="1728" arabic-form="isolated" 
d="M1609 -476c-44.667 -35.333 -90.5 -69.333 -137.5 -102s-119.5 -66.334 -217.5 -101.001c-323.333 -82 -583.333 -84.667 -780 -8c-86 30 -166 78.833 -240 146.5s-123 142.5 -147 224.5c-44.667 96 -63.334 228 -56.001 396c32 314.667 172 549 420 703
c19.333 10 45.333 27.667 78 53c-68 2 -166.333 10 -295 24c-74 -2 -144.667 3 -212 15c0 18.667 6 43.667 18 75c16 40.667 25 65 27 73c31.333 102 106.333 184 225 246l320 126c18 8 104 29.667 258 65c104 22 181.333 58.333 232 109c-12 41.333 -28 64 -48 68
c-30.667 -34 -76.667 -54.667 -138 -62c-22.667 -2 -75 0 -157 6c-80 27.333 -127 73 -141 137c-16 22 -16 76 0 162c14 88 22 136 24 144c16.667 54 45.667 93 87 117c44.667 16.667 85.667 25 123 25c52.667 0 103.667 -19.333 153 -58c74 -58 125 -143 153 -255
c12.667 -56 19 -106.667 19 -152c0 -56.667 -11.333 -126 -34 -208c-57.333 -100 -154.333 -171.667 -291 -215c-121.333 -26.667 -242.333 -54.667 -363 -84c-43.333 -10 -97 -28 -161 -54l17 -16c84 -12 179 -18 285 -18c78 0 188.333 4 331 12
c154 10 263.667 16.333 329 19c8.66699 0 23.334 2 44.001 6s37 5 49 3c0 -16.667 -10.667 -43.667 -32 -81l-41 -74c-13.333 -23.333 -30 -54.666 -50 -93.999c-221.333 -28.667 -434.333 -80 -639 -154c-76 -45.333 -140.667 -86.333 -194 -123
c-176 -153.333 -270 -316 -282 -488c-13.333 -130.667 43 -251.667 169 -363c93.333 -94 211 -156.333 353 -187c247.333 -34.667 473.333 -39.667 678 -15c70 6 170.667 20.333 302 43c4 -2 13.667 -4 29 -6s23 -7.33301 23 -16c0 -4 -1 -9 -3 -15zM662 2423
l0.000976562 11l158 211h8c56 -60.667 126 -115 210 -163c2.66699 -2.66699 4 -5.66699 4 -9l-153 -207c-2 -0.666992 -4.66699 -1 -8 -1c-4.66699 0 -12.334 2 -23.001 6c-52.667 24 -118 74.667 -196 152z" />
    <glyph glyph-name="uniFC2F" unicode="&#xfed3;&#xfea6;" horiz-adv-x="1735" arabic-form="isolated" 
d="M1609 -476c-44.667 -35.333 -90.5 -69.333 -137.5 -102s-119.5 -66.334 -217.5 -101.001c-323.333 -82 -583.333 -84.667 -780 -8c-86 30 -166 78.833 -240 146.5s-123 142.5 -147 224.5c-44.667 96 -63.334 228 -56.001 396c32 314.667 172 549 420 703
c19.333 10 45.333 27.667 78 53c-68 2 -166.333 10 -295 24c-74 -2 -144.667 3 -212 15c0 18.667 6 43.667 18 75c16 40.667 25 65 27 73c31.333 102 106.333 184 225 246l320 126c18 8 104 29.667 258 65c104 22 181.333 58.333 232 109c-12 41.333 -28 64 -48 68
c-30.667 -34 -76.667 -54.667 -138 -62c-22.667 -2 -75 0 -157 6c-80 27.333 -127 73 -141 137c-16 22 -16 76 0 162c14 88 22 136 24 144c16.667 54 45.667 93 87 117c44.667 16.667 85.667 25 123 25c52.667 0 103.667 -19.333 153 -58c74 -58 125 -143 153 -255
c12.667 -56 19 -106.667 19 -152c0 -56.667 -11.333 -126 -34 -208c-57.333 -100 -154.333 -171.667 -291 -215c-121.333 -26.667 -242.333 -54.667 -363 -84c-43.333 -10 -97 -28 -161 -54l17 -16c84 -12 179 -18 285 -18c78 0 188.333 4 331 12
c154 10 263.667 16.333 329 19c8.66699 0 23.334 2 44.001 6s37 5 49 3c0 -16.667 -10.667 -43.667 -32 -81l-41 -74c-13.333 -23.333 -30 -54.666 -50 -93.999c-221.333 -28.667 -434.333 -80 -639 -154c-76 -45.333 -140.667 -86.333 -194 -123
c-176 -153.333 -270 -316 -282 -488c-13.333 -130.667 43 -251.667 169 -363c93.333 -94 211 -156.333 353 -187c247.333 -34.667 473.333 -39.667 678 -15c70 6 170.667 20.333 302 43c4 -2 13.667 -4 29 -6s23 -7.33301 23 -16c0 -4 -1 -9 -3 -15zM720 2405
l0.000976562 11l158 211h8c56 -60.667 126 -115 210 -163c2.66699 -2.66699 4 -5.66699 4 -9l-153 -207c-2 -0.666992 -4.66699 -1 -8 -1c-4.66699 0 -12.334 2 -23.001 6c-52.667 24 -118 74.667 -196 152zM116.001 1569l0.000976562 11l158 211h8
c56 -60.667 126 -115 210 -163c2.66699 -2.66699 4 -5.66699 4 -9l-153 -207c-2 -0.666992 -4.66699 -1 -8 -1c-4.66699 0 -12.334 2 -23.001 6c-52.667 24 -118 74.667 -196 152z" />
    <glyph glyph-name="uniFC30" unicode="&#xfed3;&#xfee2;" horiz-adv-x="1191" arabic-form="isolated" 
d="M79 367c48 109.333 104.667 179.335 170 210.002c14 12 49 22 105 30c44.667 6 72 23.667 82 53c23.333 122.667 105.333 215.667 246 279l350 145c32 24 41 48.667 27 74c-12 38.667 -27 58 -45 58c-20 -30.667 -54.667 -49 -104 -55s-95.666 -5 -138.999 3
s-68 13 -74 15c-34.667 14 -61.834 33.5 -81.501 58.5s-29.5 53.5 -29.5 85.5c0 18.667 4.33301 62.334 13 131.001s20.5 119.167 35.5 151.5s37.833 55.166 68.5 68.499c47.333 24 98 36 152 36c54.667 0 99.667 -15 135 -45c124.667 -66 180.667 -237 168 -513
c-20 -121.333 -69 -205.333 -147 -252c-57.333 -25.333 -142.333 -60.333 -255 -105l6 -18c46.667 -33.333 115 -79.333 205 -138c13.333 -41.333 5.33301 -103 -24 -185c-18 -54 -39.333 -90 -64 -108c6 0 -63.667 3 -209 9c-88 2 -159 -1 -213 -9
c-44.667 -6 -89.667 -11 -135 -15c-50.667 -6 -93.667 -18.333 -129 -37c-20 -22 -30 -51.667 -30 -89c0 -14.667 17.667 -117.834 53 -309.501s39.333 -423.834 12 -696.501c-3.33301 -22 -10 -50 -20 -84c-10 -35.333 -29 -54 -57 -56c-11.333 140 -16 221 -14 243
c-2 73.333 -12.333 183 -31 329c-35.333 200.667 -54 308 -56 322c-4 76 -6.5 142 -7.5 198s3.16699 102.667 12.5 140zM661 2013l0.000976562 11l158 211h8c56 -60.667 126 -115 210 -163c2.66699 -2.66699 4 -5.66699 4 -9l-153 -207c-2 -0.666992 -4.66699 -1 -8 -1
c-4.66699 0 -12.334 2 -23.001 6c-52.667 24 -118 74.667 -196 152z" />
    <glyph glyph-name="uniFC31" unicode="&#xfed3;&#xfef0;" horiz-adv-x="1452" arabic-form="isolated" 
d="M291 862c16 8 25.999 10 29.999 6c6 -6 7 -14 3 -24c-12 -28.667 -38.333 -76.667 -79 -144c-76 -122.667 -112 -232 -108 -328c4 -166 81 -291 231 -375c60.667 -35.333 127 -57 199 -65c37.333 -4 107 -5 209 -3c204.667 34 368.667 133.667 492 299
c-2 16 -11 27 -27 33c-46 24 -102.667 40.333 -170 49l-178 18c-6 12 -9 33.667 -9 65c0 130.667 23.333 204 70 220c88 49.333 167.667 112 239 188c17.333 16.667 35 48 53 94c7.33301 28 3 62 -13 102c-62 -36.667 -119 -55 -171 -55c-70 0 -138.333 18.333 -205 55
c-50 35.333 -75 84 -75 146c0 26 5.66699 65.167 17 117.5s17 89.5 17 111.5c2 49.333 34.667 91.333 98 126c26.667 10 55.667 15 87 15c66.667 0 128 -24.333 184 -73c94 -114 142 -249 144 -405c8 -94.667 -2 -178.667 -30 -252c-20.667 -61.333 -66 -126 -136 -194
c14.667 -10 49.667 -20.333 105 -31c26.667 -4 55.834 -16.333 87.501 -37s50.5 -42 56.5 -64c0 -62 -7 -120.333 -21 -175c-31.333 -113.333 -96 -231 -194 -353c-200.667 -194 -409.667 -291 -627 -291c-234.667 0 -400 126.667 -496 380c-26 80 -40.667 165 -44 255
c-3.33301 236 83.667 432.333 261 589zM791.999 1750l0.000976562 11l158 211h8c56 -60.667 126 -115 210 -163c2.66699 -2.66699 4 -5.66699 4 -9l-153 -207c-2 -0.666992 -4.66699 -1 -8 -1c-4.66699 0 -12.334 2 -23.001 6c-52.667 24 -118 74.667 -196 152z" />
    <glyph glyph-name="uniFC32" unicode="&#xfed3;&#xfef2;" horiz-adv-x="1441" arabic-form="isolated" 
d="M291 862c16 8 25.999 10 29.999 6c6 -6 7 -14 3 -24c-12 -28.667 -38.333 -76.667 -79 -144c-76 -122.667 -112 -232 -108 -328c4 -166 81 -291 231 -375c60.667 -35.333 127 -57 199 -65c37.333 -4 107 -5 209 -3c204.667 34 368.667 133.667 492 299
c-2 16 -11 27 -27 33c-46 24 -102.667 40.333 -170 49l-178 18c-6 12 -9 33.667 -9 65c0 130.667 23.333 204 70 220c88 49.333 167.667 112 239 188c17.333 16.667 35 48 53 94c7.33301 28 3 62 -13 102c-62 -36.667 -119 -55 -171 -55c-70 0 -138.333 18.333 -205 55
c-50 35.333 -75 84 -75 146c0 26 5.66699 65.167 17 117.5s17 89.5 17 111.5c2 49.333 34.667 91.333 98 126c26.667 10 55.667 15 87 15c66.667 0 128 -24.333 184 -73c94 -114 142 -249 144 -405c8 -94.667 -2 -178.667 -30 -252c-20.667 -61.333 -66 -126 -136 -194
c14.667 -10 49.667 -20.333 105 -31c26.667 -4 55.834 -16.333 87.501 -37s50.5 -42 56.5 -64c0 -62 -7 -120.333 -21 -175c-31.333 -113.333 -96 -231 -194 -353c-200.667 -194 -409.667 -291 -627 -291c-234.667 0 -400 126.667 -496 380c-26 80 -40.667 165 -44 255
c-3.33301 236 83.667 432.333 261 589zM832.999 1770l0.000976562 11l158 211h8c56 -60.667 126 -115 210 -163c2.66699 -2.66699 4 -5.66699 4 -9l-153 -207c-2 -0.666992 -4.66699 -1 -8 -1c-4.66699 0 -12.334 2 -23.001 6c-52.667 24 -118 74.667 -196 152z" />
    <glyph glyph-name="uniFC33" unicode="&#xfed7;&#xfea2;" horiz-adv-x="1735" arabic-form="isolated" 
d="M1609 -476c-44.667 -35.333 -90.5 -69.333 -137.5 -102s-119.5 -66.334 -217.5 -101.001c-323.333 -82 -583.333 -84.667 -780 -8c-86 30 -166 78.833 -240 146.5s-123 142.5 -147 224.5c-44.667 96 -63.334 228 -56.001 396c32 314.667 172 549 420 703
c19.333 10 45.333 27.667 78 53c-68 2 -166.333 10 -295 24c-74 -2 -144.667 3 -212 15c0 18.667 6 43.667 18 75c16 40.667 25 65 27 73c31.333 102 106.333 184 225 246l320 126c18 8 104 29.667 258 65c104 22 181.333 58.333 232 109c-12 41.333 -28 64 -48 68
c-30.667 -34 -76.667 -54.667 -138 -62c-22.667 -2 -75 0 -157 6c-80 27.333 -127 73 -141 137c-16 22 -16 76 0 162c14 88 22 136 24 144c16.667 54 45.667 93 87 117c44.667 16.667 85.667 25 123 25c52.667 0 103.667 -19.333 153 -58c74 -58 125 -143 153 -255
c12.667 -56 19 -106.667 19 -152c0 -56.667 -11.333 -126 -34 -208c-57.333 -100 -154.333 -171.667 -291 -215c-121.333 -26.667 -242.333 -54.667 -363 -84c-43.333 -10 -97 -28 -161 -54l17 -16c84 -12 179 -18 285 -18c78 0 188.333 4 331 12
c154 10 263.667 16.333 329 19c8.66699 0 23.334 2 44.001 6s37 5 49 3c0 -16.667 -10.667 -43.667 -32 -81l-41 -74c-13.333 -23.333 -30 -54.666 -50 -93.999c-221.333 -28.667 -434.333 -80 -639 -154c-76 -45.333 -140.667 -86.333 -194 -123
c-176 -153.333 -270 -316 -282 -488c-13.333 -130.667 43 -251.667 169 -363c93.333 -94 211 -156.333 353 -187c247.333 -34.667 473.333 -39.667 678 -15c70 6 170.667 20.333 302 43c4 -2 13.667 -4 29 -6s23 -7.33301 23 -16c0 -4 -1 -9 -3 -15zM530 2349
l-0.00195312 10c33.333 46.667 81.333 110.334 144 191h7c12.667 -14 48.334 -42.667 107.001 -86l85 -63c32 44.667 75 101.334 129 170h7c50.667 -54 114.334 -103 191.001 -147c2 -1.33301 3 -4.33301 3 -9l-140 -187c-0.666992 -1.33301 -2.66699 -2 -6 -2
c-4.66699 0 -12 1.66699 -22 5c-47.333 22 -106.333 68.667 -177 140v1l-123 -165c-0.666992 -1.33301 -2.66699 -2 -6 -2c-4.66699 0 -12 1.66699 -22 5c-47.333 22 -106.333 68.333 -177 139z" />
    <glyph glyph-name="uniFC34" unicode="&#xfed7;&#xfee2;" horiz-adv-x="1217" arabic-form="isolated" 
d="M79 367c48 109.333 104.667 179.335 170 210.002c14 12 49 22 105 30c44.667 6 72 23.667 82 53c23.333 122.667 105.333 215.667 246 279l350 145c32 24 41 48.667 27 74c-12 38.667 -27 58 -45 58c-20 -30.667 -54.667 -49 -104 -55s-95.666 -5 -138.999 3
s-68 13 -74 15c-34.667 14 -61.834 33.5 -81.501 58.5s-29.5 53.5 -29.5 85.5c0 18.667 4.33301 62.334 13 131.001s20.5 119.167 35.5 151.5s37.833 55.166 68.5 68.499c47.333 24 98 36 152 36c54.667 0 99.667 -15 135 -45c124.667 -66 180.667 -237 168 -513
c-20 -121.333 -69 -205.333 -147 -252c-57.333 -25.333 -142.333 -60.333 -255 -105l6 -18c46.667 -33.333 115 -79.333 205 -138c13.333 -41.333 5.33301 -103 -24 -185c-18 -54 -39.333 -90 -64 -108c6 0 -63.667 3 -209 9c-88 2 -159 -1 -213 -9
c-44.667 -6 -89.667 -11 -135 -15c-50.667 -6 -93.667 -18.333 -129 -37c-20 -22 -30 -51.667 -30 -89c0 -14.667 17.667 -117.834 53 -309.501s39.333 -423.834 12 -696.501c-3.33301 -22 -10 -50 -20 -84c-10 -35.333 -29 -54 -57 -56c-11.333 140 -16 221 -14 243
c-2 73.333 -12.333 183 -31 329c-35.333 200.667 -54 308 -56 322c-4 76 -6.5 142 -7.5 198s3.16699 102.667 12.5 140zM518 1919l-0.00195312 9.99805c33.333 46.667 81.333 110.334 144 191.001h7c12.667 -14 48.334 -42.667 107.001 -86l85 -63
c32 44.667 75 101.334 129 170.001h7c50.667 -54 114.334 -103 191.001 -147c2 -1.33301 3 -4.33301 3 -9l-140 -187c-0.666992 -1.33301 -2.66699 -2 -6 -2c-4.66699 0 -12 1.66699 -22 5c-47.333 22 -106.333 68.667 -177 140v1l-123 -165
c-0.666992 -1.33301 -2.66699 -2 -6 -2c-4.66699 0 -12 1.66699 -22 5c-47.333 22 -106.333 68.333 -177 139z" />
    <glyph glyph-name="uniFC35" unicode="&#xfed7;&#xfef0;" horiz-adv-x="1446" arabic-form="isolated" 
d="M291 862c16 8 25.999 10 29.999 6c6 -6 7 -14 3 -24c-12 -28.667 -38.333 -76.667 -79 -144c-76 -122.667 -112 -232 -108 -328c4 -166 81 -291 231 -375c60.667 -35.333 127 -57 199 -65c37.333 -4 107 -5 209 -3c204.667 34 368.667 133.667 492 299
c-2 16 -11 27 -27 33c-46 24 -102.667 40.333 -170 49l-178 18c-6 12 -9 33.667 -9 65c0 130.667 23.333 204 70 220c88 49.333 167.667 112 239 188c17.333 16.667 35 48 53 94c7.33301 28 3 62 -13 102c-62 -36.667 -119 -55 -171 -55c-70 0 -138.333 18.333 -205 55
c-50 35.333 -75 84 -75 146c0 26 5.66699 65.167 17 117.5s17 89.5 17 111.5c2 49.333 34.667 91.333 98 126c26.667 10 55.667 15 87 15c66.667 0 128 -24.333 184 -73c94 -114 142 -249 144 -405c8 -94.667 -2 -178.667 -30 -252c-20.667 -61.333 -66 -126 -136 -194
c14.667 -10 49.667 -20.333 105 -31c26.667 -4 55.834 -16.333 87.501 -37s50.5 -42 56.5 -64c0 -62 -7 -120.333 -21 -175c-31.333 -113.333 -96 -231 -194 -353c-200.667 -194 -409.667 -291 -627 -291c-234.667 0 -400 126.667 -496 380c-26 80 -40.667 165 -44 255
c-3.33301 236 83.667 432.333 261 589zM660.999 1730l-0.00195312 9.99805c33.333 46.667 81.333 110.334 144 191.001h7c12.667 -14 48.334 -42.667 107.001 -86l85 -63c32 44.667 75 101.334 129 170.001h7c50.667 -54 114.334 -103 191.001 -147
c2 -1.33301 3 -4.33301 3 -9l-140 -187c-0.666992 -1.33301 -2.66699 -2 -6 -2c-4.66699 0 -12 1.66699 -22 5c-47.333 22 -106.333 68.667 -177 140v1l-123 -165c-0.666992 -1.33301 -2.66699 -2 -6 -2c-4.66699 0 -12 1.66699 -22 5c-47.333 22 -106.333 68.333 -177 139z
" />
    <glyph glyph-name="uniFC36" unicode="&#xfed7;&#xfef2;" horiz-adv-x="1435" arabic-form="isolated" 
d="M291 862c16 8 25.999 10 29.999 6c6 -6 7 -14 3 -24c-12 -28.667 -38.333 -76.667 -79 -144c-76 -122.667 -112 -232 -108 -328c4 -166 81 -291 231 -375c60.667 -35.333 127 -57 199 -65c37.333 -4 107 -5 209 -3c204.667 34 368.667 133.667 492 299
c-2 16 -11 27 -27 33c-46 24 -102.667 40.333 -170 49l-178 18c-6 12 -9 33.667 -9 65c0 130.667 23.333 204 70 220c88 49.333 167.667 112 239 188c17.333 16.667 35 48 53 94c7.33301 28 3 62 -13 102c-62 -36.667 -119 -55 -171 -55c-70 0 -138.333 18.333 -205 55
c-50 35.333 -75 84 -75 146c0 26 5.66699 65.167 17 117.5s17 89.5 17 111.5c2 49.333 34.667 91.333 98 126c26.667 10 55.667 15 87 15c66.667 0 128 -24.333 184 -73c94 -114 142 -249 144 -405c8 -94.667 -2 -178.667 -30 -252c-20.667 -61.333 -66 -126 -136 -194
c14.667 -10 49.667 -20.333 105 -31c26.667 -4 55.834 -16.333 87.501 -37s50.5 -42 56.5 -64c0 -62 -7 -120.333 -21 -175c-31.333 -113.333 -96 -231 -194 -353c-200.667 -194 -409.667 -291 -627 -291c-234.667 0 -400 126.667 -496 380c-26 80 -40.667 165 -44 255
c-3.33301 236 83.667 432.333 261 589zM655.999 1727l-0.00195312 9.99805c33.333 46.667 81.333 110.334 144 191.001h7c12.667 -14 48.334 -42.667 107.001 -86l85 -63c32 44.667 75 101.334 129 170.001h7c50.667 -54 114.334 -103 191.001 -147
c2 -1.33301 3 -4.33301 3 -9l-140 -187c-0.666992 -1.33301 -2.66699 -2 -6 -2c-4.66699 0 -12 1.66699 -22 5c-47.333 22 -106.333 68.667 -177 140v1l-123 -165c-0.666992 -1.33301 -2.66699 -2 -6 -2c-4.66699 0 -12 1.66699 -22 5c-47.333 22 -106.333 68.333 -177 139z
" />
    <glyph glyph-name="uniFC37" unicode="&#xfb90;&#xfe8e;" horiz-adv-x="1521" arabic-form="isolated" 
d="M185 1968c44.667 4 104.832 -14.498 180.499 -55.498s124.834 -81.833 147.501 -122.5c-12 -4 -24.333 -6 -37 -6c-2 0 -37.667 12 -107 36c-56 30.667 -100 43 -132 37l-16 -15c4 -196.667 17.333 -432 40 -706c6 -72 15 -157 27 -255
c117.333 94 321.333 243.333 612 448c264 184 464.667 336.667 602 458c12.667 -31.333 6.66699 -67.333 -18 -108l-176 -399c-8 -6 -15 -9 -21 -9c-12 0 -17 13 -15 39c10 24.667 14 58.667 12 102c-38.667 -20 -85.667 -54 -141 -102c-70 -55.333 -116 -91 -138 -107
c-232 -158 -403 -281 -513 -369l9 -9c145.333 4 341 -32 587 -108c112 -50.667 169.333 -135.667 172 -255c2 -128.667 -31.5 -247.334 -100.5 -356.001s-161.5 -194.334 -277.5 -257.001c-74 -39.333 -153 -59 -237 -59c-140.667 0 -248 53 -322 159
c-43.333 62 -84.333 157.667 -123 287c-44 324.667 -77.333 813 -100 1465c-1.33301 48 -2.5 105 -3.5 171s28.5 98 88.5 96zM313.998 518.002c14 -68 26.999 -136.667 38.999 -206c20.667 -80 56.667 -138.333 108 -175c80 -41.333 159 -62 237 -62c88 0 174 22.5 258 67.5
s149.333 103.5 196 175.5c-36.667 59.333 -94 102.333 -172 129l-218 50c-48.667 10 -111 19 -187 27c-35.333 4 -80.166 10.667 -134.499 20s-94.5 12 -120.5 8c-6 -12.667 -8 -24 -6 -34z" />
    <glyph glyph-name="uniFC3B" unicode="&#xfb90;&#xfede;" horiz-adv-x="2538" arabic-form="isolated" 
d="M2332 1471c-12 -16 -24.668 -45.333 -38.001 -88l-39 -5c-2 21.333 1 52.333 9 93c-60 -16 -134 -54 -222 -114l-408 -294l9 -10c45.333 4 88.333 6 129 6c223.333 0 398.333 -67.667 525 -203c25.333 -62.667 38 -131 38 -205c0 -90 -18.667 -172 -56 -246
c-38.667 -108 -108 -200 -208 -276c-105.333 -82 -213 -123 -323 -123c-100.667 0 -185.667 31.333 -255 94l-76 108l-72 -156c-182 -268 -401 -402 -657 -402c-153.333 0 -288.333 39 -405 117c-172 141.333 -254.333 337.333 -247 588
c18.667 208 120.334 386.667 305.001 536c24 6.66699 35 -2 33 -26c-100 -144.667 -151 -221 -153 -229c-54.667 -94 -79 -180 -73 -258c6 -82 41.167 -163 105.5 -243s136.5 -133 216.5 -159c71.333 -25.333 155.333 -38 252 -38c182 0 343.667 51 485 153
c77.333 68.667 114.333 137.667 111 207c0 2 -1 13 -3 33l-125 1125c-5.33301 133.333 -8 213 -8 239c13.333 106.667 42 189.667 86 249c-2 0 -1 2.66699 3 8s9.66699 8 17 8c6 0 11 -6.33301 15 -19c12 -190 36.333 -482.667 73 -878c121.333 100 311.5 234 570.5 402
s447.833 301 566.5 399c-12.667 -48.667 -43 -115 -91 -199s-78 -148.667 -90 -194zM2099 416c25.333 19.333 48.834 41.332 70.501 65.999s36.834 51.334 45.5 80.001c-100 129.333 -264 194 -492 194c-84 0 -184 -8.66699 -300 -26c-7.33301 -34 0.666992 -94 24 -180
c0 -2.66699 5.66699 -10.5 17 -23.5s15.666 -25.5 12.999 -37.5c68 -123.333 172.333 -185 313 -185c107.333 0 210.333 37.333 309 112z" />
    <glyph glyph-name="uniFC3C" unicode="&#xfedb;&#xfee2;" horiz-adv-x="2564" arabic-form="isolated" 
d="M753 485c4 -30.667 8 -51 12 -61c6 -18 19.333 -35.667 40 -53c10 -10 29.667 -23 59 -39c60.667 -34.667 135 -52 223 -52c72 0 138.667 12 200 36c-77.333 74 -165.333 142 -264 204c-63.333 14 -104.333 21 -123 21c-30 0 -57.667 -7 -83 -21zM105 -88
c118.667 73.333 291.668 191.001 519.001 353.001l55 211c22 80 47.667 147.667 77 203c36.667 68 82.667 110 138 126c30.667 10 61.667 15 93 15c72.667 0 161.667 -44 267 -132c116.667 -96 203.5 -150.333 260.5 -163s112.5 -19 166.5 -19c141.333 0 251 40 329 120
l-6 74c-43.333 84 -109.333 187.333 -198 310c-133.333 191.333 -204 292 -212 302c-38.667 54.667 -63 122.667 -73 204c13.333 102.667 44.666 178 93.999 226c31.333 37.333 93 85.333 185 144c44.667 29.333 169.667 100 375 212c154 84 274 161 360 231
c2.66699 -82.667 -37.333 -205.667 -120 -369c0 -10 -6.33301 -25.833 -19 -47.5s-23 -32.5 -31 -32.5c-10 0 -13 15.833 -9 47.5s3 50.5 -3 56.5l-366 -206c-150.667 -88 -267 -169 -349 -243c20 -42.667 76.333 -111.167 169 -205.5s171.334 -203.833 236.001 -328.5
c43.333 -98 66.333 -203.333 69 -316c-31.333 -174 -101.333 -304 -210 -390c-6 -2 -24.667 -11 -56 -27c-22 -13.333 -42.333 -20 -61 -20c-53.333 -12 -106.333 -18 -159 -18c-84 0 -160 15.667 -228 47c-76 -92 -134.667 -155.667 -176 -191
c-74.667 -64.667 -150 -97 -226 -97c-25.333 0 -50 3 -74 9c-46.667 16 -94.834 33.667 -144.501 53s-88.5 49.666 -116.5 90.999c-6.66699 2 -13 1 -19 -3c-18 -31.333 -48.333 -90.666 -91 -177.999c-84.667 -26.667 -173 -52.334 -265 -77.001
c-128.667 -35.333 -212.667 -60 -252 -74c-6 8 -9 16 -9 24c0 21.333 26.667 47.333 80 78z" />
    <glyph glyph-name="uniFC3D" unicode="&#xfb90;&#xfef0;" horiz-adv-x="1901" arabic-form="isolated" 
d="M1644 1596c-18 14 -23.4971 33.166 -16.4971 57.499s6.5 40.5 -1.5 48.5c-74 -42.667 -294.667 -189 -662 -439l146 -212c68 -94 112 -164.333 132 -211c33.333 -70 50 -148 50 -234c3.33301 -55.333 -7 -108.333 -31 -159c-26 -33.333 -42 -65.333 -48 -96
c43.333 -14 85.333 -28.667 126 -44c49.333 -20 76 -51.333 80 -94c2.66699 -23.333 4 -45 4 -65c0 -222.667 -95.333 -412 -286 -568c-78 -70 -165 -120.833 -261 -152.5s-176 -47.5 -240 -47.5c-125.333 0 -244 41 -356 123c-164 117.333 -249 296.333 -255 537
c0 45.333 4 90.333 12 135c26 140 110 278.667 252 416c18 4 30 -3.66699 36 -23c-6 -24 -22 -52.333 -48 -85c-38.667 -47.333 -60 -75 -64 -83c-56 -70 -84 -150 -84 -240c0 -76 19.333 -147.333 58 -214c111.333 -190 291 -281 539 -273c220.667 6 417 99 589 279
c8 18 12 29 12 33c-44.667 28.667 -121.834 49.334 -231.501 62.001s-181.834 30 -216.501 52c6 56.667 22.333 145.667 49 267c2 0 51 24.333 147 73c57.333 29.333 101.333 63.333 132 102c-22 66 -67 148 -135 246c-78 115.333 -127 194.333 -147 237
c-34 39.333 -55.333 91 -64 155c-5.33301 66 4.66699 134.667 30 206c53.333 69.333 103.666 119 150.999 149l816 506c12 -51.333 -10.333 -126 -67 -224c-86 -116.667 -135 -190 -147 -220z" />
    <glyph glyph-name="uniFC3E" unicode="&#xfedb;&#xfef2;" horiz-adv-x="1886" arabic-form="isolated" 
d="M1644 1596c-18 14 -23.4971 33.166 -16.4971 57.499s6.5 40.5 -1.5 48.5c-74 -42.667 -294.667 -189 -662 -439l146 -212c68 -94 112 -164.333 132 -211c33.333 -70 50 -148 50 -234c3.33301 -55.333 -7 -108.333 -31 -159c-26 -33.333 -42 -65.333 -48 -96
c43.333 -14 85.333 -28.667 126 -44c49.333 -20 76 -51.333 80 -94c2.66699 -23.333 4 -45 4 -65c0 -222.667 -95.333 -412 -286 -568c-78 -70 -165 -120.833 -261 -152.5s-176 -47.5 -240 -47.5c-125.333 0 -244 41 -356 123c-164 117.333 -249 296.333 -255 537
c0 45.333 4 90.333 12 135c26 140 110 278.667 252 416c18 4 30 -3.66699 36 -23c-6 -24 -22 -52.333 -48 -85c-38.667 -47.333 -60 -75 -64 -83c-56 -70 -84 -150 -84 -240c0 -76 19.333 -147.333 58 -214c111.333 -190 291 -281 539 -273c220.667 6 417 99 589 279
c8 18 12 29 12 33c-44.667 28.667 -121.834 49.334 -231.501 62.001s-181.834 30 -216.501 52c6 56.667 22.333 145.667 49 267c2 0 51 24.333 147 73c57.333 29.333 101.333 63.333 132 102c-22 66 -67 148 -135 246c-78 115.333 -127 194.333 -147 237
c-34 39.333 -55.333 91 -64 155c-5.33301 66 4.66699 134.667 30 206c53.333 69.333 103.666 119 150.999 149l816 506c12 -51.333 -10.333 -126 -67 -224c-86 -116.667 -135 -190 -147 -220z" />
    <glyph glyph-name="uniFC3F" unicode="&#xfedf;&#xfe9e;" horiz-adv-x="1650" arabic-form="isolated" 
d="M1564 -453c-81.333 -69.333 -212.33 -131.336 -392.997 -186.003c-86 -36 -270 -34.333 -552 5c-132.667 23.333 -245.667 66.333 -339 129c-116.667 78.667 -185.334 176.334 -206.001 293.001c-32.667 85.333 -47 187.333 -43 306c5.33301 196.667 71 363.667 197 501
c116.667 126 242 222.667 376 290v8c-114 6 -282 20.667 -504 44c7.33301 82 30 157.667 68 227c27.333 26 62.833 47.667 106.5 65l126.5 49c89.333 36.667 218 95 386 175c53.333 234.667 89.666 386 108.999 454c11.333 64 25 126 41 186s42 147.333 78 262
c9.33301 20.667 20.666 31 33.999 31s22.333 -9 27 -27c6.66699 -84.667 -19.5 -257.167 -78.5 -517.5s-95.5 -399.5 -109.5 -417.5c-36.667 -64 -86.5 -108.667 -149.5 -134l-272.5 -110c263.333 -22 461.5 -30.167 594.5 -24.5s214.167 9.16699 243.5 10.5
c10.667 0 16 -7.66699 16 -23c0 -46 -26.333 -114.667 -79 -206c-57.333 -11.333 -142.333 -29.666 -255 -54.999c-277.333 -67.333 -484.833 -168.666 -622.5 -303.999s-209.167 -281.333 -214.5 -438c-4 -102 22.333 -190 79 -264c115.333 -119.333 277 -196.333 485 -231
c118 -28 276 -41.667 474 -41c23.333 -1.33301 169 1.66699 437 9c0 -11.333 -20 -33.333 -60 -66zM690.003 189.997l0.000976562 11l158 211h8c56 -60.667 126 -115 210 -163c2.66699 -2.66699 4 -5.66699 4 -9l-153 -207c-2 -0.666992 -4.66699 -1 -8 -1
c-4.66699 0 -12.334 2 -23.001 6c-52.667 24 -118 74.667 -196 152z" />
    <glyph glyph-name="uniFC40" unicode="&#xfedf;&#xfea2;" horiz-adv-x="1649" arabic-form="isolated" 
d="M1564 -453c-81.333 -69.333 -212.33 -131.336 -392.997 -186.003c-86 -36 -270 -34.333 -552 5c-132.667 23.333 -245.667 66.333 -339 129c-116.667 78.667 -185.334 176.334 -206.001 293.001c-32.667 85.333 -47 187.333 -43 306c5.33301 196.667 71 363.667 197 501
c116.667 126 242 222.667 376 290v8c-114 6 -282 20.667 -504 44c7.33301 82 30 157.667 68 227c27.333 26 62.833 47.667 106.5 65l126.5 49c89.333 36.667 218 95 386 175c53.333 234.667 89.666 386 108.999 454c11.333 64 25 126 41 186s42 147.333 78 262
c9.33301 20.667 20.666 31 33.999 31s22.333 -9 27 -27c6.66699 -84.667 -19.5 -257.167 -78.5 -517.5s-95.5 -399.5 -109.5 -417.5c-36.667 -64 -86.5 -108.667 -149.5 -134l-272.5 -110c263.333 -22 461.5 -30.167 594.5 -24.5s214.167 9.16699 243.5 10.5
c10.667 0 16 -7.66699 16 -23c0 -46 -26.333 -114.667 -79 -206c-57.333 -11.333 -142.333 -29.666 -255 -54.999c-277.333 -67.333 -484.833 -168.666 -622.5 -303.999s-209.167 -281.333 -214.5 -438c-4 -102 22.333 -190 79 -264c115.333 -119.333 277 -196.333 485 -231
c118 -28 276 -41.667 474 -41c23.333 -1.33301 169 1.66699 437 9c0 -11.333 -20 -33.333 -60 -66z" />
    <glyph glyph-name="uniFC41" unicode="&#xfedf;&#xfea6;" horiz-adv-x="1644" arabic-form="isolated" 
d="M1564 -453c-81.333 -69.333 -212.33 -131.336 -392.997 -186.003c-86 -36 -270 -34.333 -552 5c-132.667 23.333 -245.667 66.333 -339 129c-116.667 78.667 -185.334 176.334 -206.001 293.001c-32.667 85.333 -47 187.333 -43 306c5.33301 196.667 71 363.667 197 501
c116.667 126 242 222.667 376 290v8c-114 6 -282 20.667 -504 44c7.33301 82 30 157.667 68 227c27.333 26 62.833 47.667 106.5 65l126.5 49c89.333 36.667 218 95 386 175c53.333 234.667 89.666 386 108.999 454c11.333 64 25 126 41 186s42 147.333 78 262
c9.33301 20.667 20.666 31 33.999 31s22.333 -9 27 -27c6.66699 -84.667 -19.5 -257.167 -78.5 -517.5s-95.5 -399.5 -109.5 -417.5c-36.667 -64 -86.5 -108.667 -149.5 -134l-272.5 -110c263.333 -22 461.5 -30.167 594.5 -24.5s214.167 9.16699 243.5 10.5
c10.667 0 16 -7.66699 16 -23c0 -46 -26.333 -114.667 -79 -206c-57.333 -11.333 -142.333 -29.666 -255 -54.999c-277.333 -67.333 -484.833 -168.666 -622.5 -303.999s-209.167 -281.333 -214.5 -438c-4 -102 22.333 -190 79 -264c115.333 -119.333 277 -196.333 485 -231
c118 -28 276 -41.667 474 -41c23.333 -1.33301 169 1.66699 437 9c0 -11.333 -20 -33.333 -60 -66zM263.003 1616l0.000976562 11l158 211h8c56 -60.667 126 -115 210 -163c2.66699 -2.66699 4 -5.66699 4 -9l-153 -207c-2 -0.666992 -4.66699 -1 -8 -1
c-4.66699 0 -12.334 2 -23.001 6c-52.667 24 -118 74.667 -196 152z" />
    <glyph glyph-name="uniFC42" unicode="&#xfedf;&#xfee2;" horiz-adv-x="2127" arabic-form="isolated" 
d="M2037 1367c0 -68 7.5 -168 22.5 -300s22.5 -231.667 22.5 -299c13.333 -188.667 -12.334 -346.667 -77 -474c-80.667 -120.667 -164.667 -185 -252 -193s-166.666 8.33301 -237.999 49c-61.333 37.333 -100.333 59 -117 65c-20 -17.333 -54.667 -57 -104 -119
c-42.667 -50.667 -81.667 -85 -117 -103c-10 -12 -58 -31.333 -144 -58c-132.667 -14 -239 34.667 -319 146c0 21.333 -6.66699 35 -20 41c-58.667 -132.667 -95.667 -203 -111 -211c-145.333 -42 -327.666 -80 -546.999 -114l-11 18c15.333 43.333 92.5 98 231.5 164
s279.833 142.667 422.5 230c2 128.667 47 273 135 433c45.333 81.333 114.333 128.333 207 141c75.333 2 187.166 -59.5 335.499 -184.5s272.666 -190.333 372.999 -196s183.833 23.833 250.5 88.5l-32 510c-12 186.667 -30.333 356.667 -55 510c-2 88 23.333 207 76 357
c4 2 9.66699 3 17 3c2 -80 38.333 -194 109 -342c2 -18 -7.16699 -45.5 -27.5 -82.5s-30.5 -63.5 -30.5 -79.5zM1303 279c-40.667 55.333 -91.667 106.333 -153 153c-72 56 -135.333 84 -190 84c-58 0 -108.667 -21.333 -152 -64c-6 -13.333 -6 -29 0 -47
c4 -14 9 -29.333 15 -46c82 -96 181.667 -144 299 -144c36.667 0 71.667 6 105 18z" />
    <glyph glyph-name="uniFC43" unicode="&#xfedf;&#xfef0;" horiz-adv-x="1508" arabic-form="isolated" 
d="M1387 5c-88 -130.667 -193.666 -234.669 -316.999 -312.002c-136.667 -88 -277.667 -132 -423 -132c-120.667 0 -232.667 32.667 -336 98c-184 116.667 -279.333 299.667 -286 549c0 236 108 439 324 609c20 0 30 -6.66699 30 -20c0 -10 -5 -21 -15 -33
c-121.333 -148 -193.666 -270 -216.999 -366c-2 -20 -3 -41.333 -3 -64c-6.66699 -141.333 50 -258 170 -350c111.333 -82 240.333 -123 387 -123c78 0 161 10 249 30c205.333 80 341.666 167 408.999 261c-46.667 29.333 -164.334 62.333 -353.001 99
c-16 6 -24 32.667 -24 80c0 106.667 16.333 181.667 49 225c81.333 40.667 140.666 84.667 177.999 132c-8.66699 148.667 -26 371.667 -52 669c-28.667 102.667 -43 179.667 -43 231c0 52.667 10 101.667 30 147c4 30.667 16.333 73.667 37 129
c14 -29.333 27.667 -72.333 41 -129c8 -33.333 31.333 -81.666 70 -144.999s58 -112 58 -146c0 -27.333 -12.167 -69.166 -36.5 -125.499s-36.5 -99.5 -36.5 -129.5c0 -13.333 2 -27 6 -41c12.667 -142.667 19 -241 19 -295c0 -73.333 -6.33301 -137 -19 -191
c-4 -28 -15.333 -69 -34 -123c16 -16 44 -28.5 84 -37.5s67.333 -17.833 82 -26.5c52.667 -28 74.334 -86.333 65.001 -175c-5.33301 -68 -36.333 -166.333 -93 -295z" />
    <glyph glyph-name="uniFC44" unicode="&#xfedf;&#xfef2;" horiz-adv-x="1513" arabic-form="isolated" 
d="M1387 5c-88 -130.667 -193.666 -234.669 -316.999 -312.002c-136.667 -88 -277.667 -132 -423 -132c-120.667 0 -232.667 32.667 -336 98c-184 116.667 -279.333 299.667 -286 549c0 236 108 439 324 609c20 0 30 -6.66699 30 -20c0 -10 -5 -21 -15 -33
c-121.333 -148 -193.666 -270 -216.999 -366c-2 -20 -3 -41.333 -3 -64c-6.66699 -141.333 50 -258 170 -350c111.333 -82 240.333 -123 387 -123c78 0 161 10 249 30c205.333 80 341.666 167 408.999 261c-46.667 29.333 -164.334 62.333 -353.001 99
c-16 6 -24 32.667 -24 80c0 106.667 16.333 181.667 49 225c81.333 40.667 140.666 84.667 177.999 132c-8.66699 148.667 -26 371.667 -52 669c-28.667 102.667 -43 179.667 -43 231c0 52.667 10 101.667 30 147c4 30.667 16.333 73.667 37 129
c14 -29.333 27.667 -72.333 41 -129c8 -33.333 31.333 -81.666 70 -144.999s58 -112 58 -146c0 -27.333 -12.167 -69.166 -36.5 -125.499s-36.5 -99.5 -36.5 -129.5c0 -13.333 2 -27 6 -41c12.667 -142.667 19 -241 19 -295c0 -73.333 -6.33301 -137 -19 -191
c-4 -28 -15.333 -69 -34 -123c16 -16 44 -28.5 84 -37.5s67.333 -17.833 82 -26.5c52.667 -28 74.334 -86.333 65.001 -175c-5.33301 -68 -36.333 -166.333 -93 -295z" />
    <glyph glyph-name="uniFC48" unicode="&#xfee3;&#xfee2;" horiz-adv-x="2623" arabic-form="isolated" 
d="M238 51l401 255l79 234c33.333 94 74.333 164.667 123 212c24 12.667 64 27 120 43h45c58 0 114.667 -20.333 170 -61l202 -159c80 -54 161 -81 243 -81c141.333 0 259.333 54.333 354 163c34 45.333 98.667 127.333 194 246c68.667 86 137 129 205 129
c49.333 0 103.333 -34 162 -102c41.333 -72 62 -158 62 -258c0 -116.667 -26.667 -219 -80 -307c-18 -30 -49.333 -62.667 -94 -98c-156 18 -284 63 -384 135c-35.333 35.333 -67.333 50 -96 44c-10 -9.33301 -25.667 -35.333 -47 -78c-76.667 -104 -198 -156 -364 -156
c-21.333 0 -52.5 7.16699 -93.5 21.5s-69.5 22.5 -85.5 24.5c-114.667 -194 -241.667 -294.333 -381 -301c-72 -2 -138.667 13.667 -200 47s-103 83 -125 149c2 10 -1 22.667 -9 38c-54 -80 -87 -127.667 -99 -143c-47.333 -48 -98.333 -70 -153 -66
c-76 -20.667 -186.667 -59.667 -332 -117l-30 12c28 43.333 99 101.333 213 174zM1011 497c-21.333 6 -43.333 9 -66 9c-67.333 0 -126.333 -23.667 -177 -71c6 -16 12 -27 18 -33c-4 -10 2.16699 -20.167 18.5 -30.5s25.5 -17.5 27.5 -21.5
c59.333 -57.333 140.333 -86 243 -86c69.333 0 135 14 197 42c-103.333 95.333 -190.333 159 -261 191zM2229 742c-59.333 -34.667 -90 -60.667 -92 -78c146.667 -82 259.334 -120.667 338 -116c-8.66699 34.667 -33.334 78.667 -74 132c-71.333 43.333 -117.666 65 -139 65
c-10.667 0 -21.667 -1 -33 -3z" />
    <glyph glyph-name="uniFC49" unicode="&#xfee3;&#xfef0;" horiz-adv-x="1914" arabic-form="isolated" 
d="M168 546c37.333 65.333 80.667 98.3359 130 99.0029c10 -18 9 -37.667 -3 -59c-108 -168.667 -158 -297.334 -150 -386.001s31.667 -163.334 71 -224.001c102 -165.333 266.333 -248 493 -248c244 0 437.333 90.667 580 272c18 26.667 24 52 18 76
c-272 -0.666992 -411.667 30.333 -419 93c-37.333 256 14 414.667 154 476c32 28.667 125 79 279 151c-40.667 149.333 -62.667 257 -66 323c2.66699 96 24.667 177 66 243c10 4 21 6 33 6c25.333 0 100.5 -29 225.5 -87s216.833 -126.667 275.5 -206
c36 -70 16.667 -154 -58 -252c-37.333 -14 -92.333 -39.333 -165 -76c-258 -92 -450.667 -170 -578 -234c-6 -10 -21 -22.333 -45 -37s-36 -29 -36 -43c0 -6 16.833 -13.333 50.5 -22s147.5 -15.667 341.5 -21c44 -10.667 66.667 -44.834 68 -102.501
s-12.334 -149.5 -41.001 -275.5c-47.333 -152 -145 -283.667 -293 -395c-150.667 -116 -302 -174 -454 -174c-96 0 -191 23.667 -285 71c-211.333 146.667 -323.666 338.667 -336.999 576c-11.333 142.667 37 294.667 145 456zM1374 1064
c3.33301 -48.667 20.333 -127.667 51 -237c91.333 26.667 163 56 215 88v11c-92 90 -177.333 139.333 -256 148z" />
    <glyph glyph-name="uniFC4A" unicode="&#xfee3;&#xfef2;" horiz-adv-x="1908" arabic-form="isolated" 
d="M168 546c37.333 65.333 80.667 98.3359 130 99.0029c10 -18 9 -37.667 -3 -59c-108 -168.667 -158 -297.334 -150 -386.001s31.667 -163.334 71 -224.001c102 -165.333 266.333 -248 493 -248c244 0 437.333 90.667 580 272c18 26.667 24 52 18 76
c-272 -0.666992 -411.667 30.333 -419 93c-37.333 256 14 414.667 154 476c32 28.667 125 79 279 151c-40.667 149.333 -62.667 257 -66 323c2.66699 96 24.667 177 66 243c10 4 21 6 33 6c25.333 0 100.5 -29 225.5 -87s216.833 -126.667 275.5 -206
c36 -70 16.667 -154 -58 -252c-37.333 -14 -92.333 -39.333 -165 -76c-258 -92 -450.667 -170 -578 -234c-6 -10 -21 -22.333 -45 -37s-36 -29 -36 -43c0 -6 16.833 -13.333 50.5 -22s147.5 -15.667 341.5 -21c44 -10.667 66.667 -44.834 68 -102.501
s-12.334 -149.5 -41.001 -275.5c-47.333 -152 -145 -283.667 -293 -395c-150.667 -116 -302 -174 -454 -174c-96 0 -191 23.667 -285 71c-211.333 146.667 -323.666 338.667 -336.999 576c-11.333 142.667 37 294.667 145 456zM1374 1064
c3.33301 -48.667 20.333 -127.667 51 -237c91.333 26.667 163 56 215 88v11c-92 90 -177.333 139.333 -256 148z" />
    <glyph glyph-name="uniFC4B" unicode="&#xfee7;&#xfe9e;" horiz-adv-x="1480" arabic-form="isolated" 
d="M355 637c40 37.333 104.665 86.999 193.998 148.999c-2 5.33301 -7.66699 8.5 -17 9.5s-14.666 2.5 -15.999 4.5c-74.667 3.33301 -149.334 7 -224.001 11c-86 6.66699 -156.667 18.334 -212 35.001c0 21.333 8.5 51 25.5 89s27.833 67.667 32.5 89
c18.667 47.333 58.667 87.333 120 120l154 80l232 104c92 42 159 96.333 201 163l75 146c30 58 65 101 105 129c42 10 81.333 -5 118 -45c30.667 -32.667 46 -72 46 -118c0 -24.667 -5.66699 -59 -17 -103c-11.333 -53.333 -18.666 -89 -21.999 -107
c0 -34 -5.33301 -44 -16 -30c-9.33301 18.667 -25.333 46.667 -48 84s-48.667 56.666 -78 57.999c-56.667 4 -100.334 -23.333 -131.001 -82c-40 -78.667 -71 -126 -93 -142c-45.333 -51.333 -117.666 -92.333 -216.999 -123c-126 -40 -203.333 -68.333 -232 -85
c170 -29.333 343 -44 519 -44c101.333 0 204.666 4.66699 309.999 14l143 -5c-4 -38.667 -20.333 -88.334 -49 -149.001c-8 -40 -35.667 -62.667 -83 -68c-40 -4.66699 -80 -9 -120 -13c-135.333 -20.667 -253 -50 -353 -88c-160.667 -63.333 -317 -178 -469 -344
c-67.333 -102.667 -101 -196.667 -101 -282c0 -69.333 19.667 -139.666 59 -210.999c25.333 -42 73.333 -101.333 144 -178c160.667 -112 327.334 -168 500.001 -168c54.667 0 134 2 238 6c87.333 14.667 218 32 392 52l-9 -24c-84 -49.333 -211 -117 -381 -203
c-149.333 -69.333 -271.666 -104 -366.999 -104c-139.333 0 -280 47.667 -422 143c-109.333 72.667 -182 172 -218 298c-21.333 80.667 -32 159.334 -32 236.001c-7.33301 305.333 99 537.333 319 696zM880.998 2042l0.000976562 11l158 211h8c56 -60.667 126 -115 210 -163
c2.66699 -2.66699 4 -5.66699 4 -9l-153 -207c-2 -0.666992 -4.66699 -1 -8 -1c-4.66699 0 -12.334 2 -23.001 6c-52.667 24 -118 74.667 -196 152zM670.999 133.999l0.000976562 11l158 211h8c56 -60.667 126 -115 210 -163c2.66699 -2.66699 4 -5.66699 4 -9l-153 -207
c-2 -0.666992 -4.66699 -1 -8 -1c-4.66699 0 -12.334 2 -23.001 6c-52.667 24 -118 74.667 -196 152z" />
    <glyph glyph-name="uniFC4C" unicode="&#xfee7;&#xfea2;" horiz-adv-x="1486" arabic-form="isolated" 
d="M355 637c40 37.333 104.665 86.999 193.998 148.999c-2 5.33301 -7.66699 8.5 -17 9.5s-14.666 2.5 -15.999 4.5c-74.667 3.33301 -149.334 7 -224.001 11c-86 6.66699 -156.667 18.334 -212 35.001c0 21.333 8.5 51 25.5 89s27.833 67.667 32.5 89
c18.667 47.333 58.667 87.333 120 120l154 80l232 104c92 42 159 96.333 201 163l75 146c30 58 65 101 105 129c42 10 81.333 -5 118 -45c30.667 -32.667 46 -72 46 -118c0 -24.667 -5.66699 -59 -17 -103c-11.333 -53.333 -18.666 -89 -21.999 -107
c0 -34 -5.33301 -44 -16 -30c-9.33301 18.667 -25.333 46.667 -48 84s-48.667 56.666 -78 57.999c-56.667 4 -100.334 -23.333 -131.001 -82c-40 -78.667 -71 -126 -93 -142c-45.333 -51.333 -117.666 -92.333 -216.999 -123c-126 -40 -203.333 -68.333 -232 -85
c170 -29.333 343 -44 519 -44c101.333 0 204.666 4.66699 309.999 14l143 -5c-4 -38.667 -20.333 -88.334 -49 -149.001c-8 -40 -35.667 -62.667 -83 -68c-40 -4.66699 -80 -9 -120 -13c-135.333 -20.667 -253 -50 -353 -88c-160.667 -63.333 -317 -178 -469 -344
c-67.333 -102.667 -101 -196.667 -101 -282c0 -69.333 19.667 -139.666 59 -210.999c25.333 -42 73.333 -101.333 144 -178c160.667 -112 327.334 -168 500.001 -168c54.667 0 134 2 238 6c87.333 14.667 218 32 392 52l-9 -24c-84 -49.333 -211 -117 -381 -203
c-149.333 -69.333 -271.666 -104 -366.999 -104c-139.333 0 -280 47.667 -422 143c-109.333 72.667 -182 172 -218 298c-21.333 80.667 -32 159.334 -32 236.001c-7.33301 305.333 99 537.333 319 696zM883.998 2041l0.000976562 11l158 211h8c56 -60.667 126 -115 210 -163
c2.66699 -2.66699 4 -5.66699 4 -9l-153 -207c-2 -0.666992 -4.66699 -1 -8 -1c-4.66699 0 -12.334 2 -23.001 6c-52.667 24 -118 74.667 -196 152z" />
    <glyph glyph-name="uniFC4D" unicode="&#xfee7;&#xfea6;" horiz-adv-x="1482" arabic-form="isolated" 
d="M355 637c40 37.333 104.665 86.999 193.998 148.999c-2 5.33301 -7.66699 8.5 -17 9.5s-14.666 2.5 -15.999 4.5c-74.667 3.33301 -149.334 7 -224.001 11c-86 6.66699 -156.667 18.334 -212 35.001c0 21.333 8.5 51 25.5 89s27.833 67.667 32.5 89
c18.667 47.333 58.667 87.333 120 120l154 80l232 104c92 42 159 96.333 201 163l75 146c30 58 65 101 105 129c42 10 81.333 -5 118 -45c30.667 -32.667 46 -72 46 -118c0 -24.667 -5.66699 -59 -17 -103c-11.333 -53.333 -18.666 -89 -21.999 -107
c0 -34 -5.33301 -44 -16 -30c-9.33301 18.667 -25.333 46.667 -48 84s-48.667 56.666 -78 57.999c-56.667 4 -100.334 -23.333 -131.001 -82c-40 -78.667 -71 -126 -93 -142c-45.333 -51.333 -117.666 -92.333 -216.999 -123c-126 -40 -203.333 -68.333 -232 -85
c170 -29.333 343 -44 519 -44c101.333 0 204.666 4.66699 309.999 14l143 -5c-4 -38.667 -20.333 -88.334 -49 -149.001c-8 -40 -35.667 -62.667 -83 -68c-40 -4.66699 -80 -9 -120 -13c-135.333 -20.667 -253 -50 -353 -88c-160.667 -63.333 -317 -178 -469 -344
c-67.333 -102.667 -101 -196.667 -101 -282c0 -69.333 19.667 -139.666 59 -210.999c25.333 -42 73.333 -101.333 144 -178c160.667 -112 327.334 -168 500.001 -168c54.667 0 134 2 238 6c87.333 14.667 218 32 392 52l-9 -24c-84 -49.333 -211 -117 -381 -203
c-149.333 -69.333 -271.666 -104 -366.999 -104c-139.333 0 -280 47.667 -422 143c-109.333 72.667 -182 172 -218 298c-21.333 80.667 -32 159.334 -32 236.001c-7.33301 305.333 99 537.333 319 696zM890.998 2027l0.000976562 11l158 211h8c56 -60.667 126 -115 210 -163
c2.66699 -2.66699 4 -5.66699 4 -9l-153 -207c-2 -0.666992 -4.66699 -1 -8 -1c-4.66699 0 -12.334 2 -23.001 6c-52.667 24 -118 74.667 -196 152zM227.999 1538l0.000976562 11l158 211h8c56 -60.667 126 -115 210 -163c2.66699 -2.66699 4 -5.66699 4 -9l-153 -207
c-2 -0.666992 -4.66699 -1 -8 -1c-4.66699 0 -12.334 2 -23.001 6c-52.667 24 -118 74.667 -196 152z" />
    <glyph glyph-name="uniFC4F" unicode="&#xfee7;&#xfef0;" horiz-adv-x="1419" arabic-form="isolated" 
d="M1283 -33c-16 -22 -71 -79.334 -165 -172.001c-150 -129.333 -320 -194 -510 -194c-231.333 0 -401.333 104.667 -510 314c-39.333 74.667 -62.333 163.667 -69 267c-2.66699 225.333 82.666 421.666 255.999 588.999l30 9l-6 -33l-112 -207
c-46 -82 -67.667 -153.333 -65 -214c2 -119.333 66.667 -226 194 -320c116 -88 235.333 -132 358 -132c139.333 0 299.333 55 480 165l85 65.5c28.667 22.333 48 47.166 58 74.499c-36 40.667 -101 69 -195 85c-129.333 20 -204.666 34.333 -225.999 43
s-26 31.334 -14 68.001c6 51.333 21.333 125 46 221c51.333 20.667 87 37 107 49c38.667 22 71.667 48.667 99 80c-6 126.667 -83 250.667 -231 372c4.66699 50.667 8 129.667 10 237c0 12 1 25 3 39c2 8.66699 11 9.66699 27 3c121.333 -90 202.333 -196.667 243 -320
c38 -130 38.667 -252.333 2 -367c-6 -29.333 -24 -72.333 -54 -129c14 -9.33301 57 -22 129 -38c54.667 -14 92.667 -35.333 114 -64c32.667 -47.333 45.667 -87.333 39 -120c-2 -49.333 -14 -110.166 -36 -182.499s-51 -135.166 -87 -188.499zM771 1640l0.000976562 11
l158 211h8c56 -60.667 126 -115 210 -163c2.66699 -2.66699 4 -5.66699 4 -9l-153 -207c-2 -0.666992 -4.66699 -1 -8 -1c-4.66699 0 -12.334 2 -23.001 6c-52.667 24 -118 74.667 -196 152z" />
    <glyph glyph-name="uniFC51" unicode="&#xfeeb;&#xfe9e;" horiz-adv-x="3062" arabic-form="isolated" 
d="M1578 1553c64 -90 145.998 -150.334 245.998 -181.001c-55.333 -98 -115.666 -181 -180.999 -249c-118.667 43.333 -200.667 104 -246 182l-175 -237c-120.667 38.667 -206.667 102.334 -258 191.001l194 239c44.667 -86 126.334 -146.333 245.001 -181zM117.998 367.999
l151.998 211.998c12 16 23 24 33 24c8.66699 0 13 -9 13 -27c-37.333 -64 -87.666 -161.333 -150.999 -292c-14 -41.333 -21 -85.333 -21 -132c0 -168 70.667 -297 212 -387c84 -53.333 188.333 -80 313 -80c258 0 460.333 90.333 607 271c2 2 4 13 6 33
c-10 16 -33.667 24 -71 24c-50 6.66699 -106.667 12 -170 16c-76 14 -120 54 -132 120c-10.667 46.667 -16 91.667 -16 135c0 192.667 82 365.667 246 519c141.333 98 252 147 332 147c36.667 0 71.334 -6 104.001 -18c16.667 -6 27 -15.667 31 -29s5 -28.333 3 -45l-6 -37
c-10 -36.667 -15 -69.334 -15 -98.001c0 -57.333 19.333 -104.333 58 -141c22.667 -30.667 90.334 -53.334 203.001 -68.001v0c112.667 -12 214 -4.66699 304 22c86 16 212 52.667 378 110c-147.333 98.667 -274.333 148 -381 148c-59.333 0 -114.666 -14.333 -165.999 -43
c-16.667 -6.66699 -35.667 -26.834 -57 -60.501s-45.333 -50.5 -72 -50.5c2 24.667 29.667 92.334 83 203.001c71.333 92 139 138 203 138c18 2 36.333 3 55 3c78 0 216.333 -43 415 -129c188 -80 333.333 -115.667 436 -107l-56 -160
c-22 -59.333 -49.333 -107.666 -82 -144.999c-110.667 8.66699 -248 -14.666 -412 -69.999c-215.333 -72 -350.666 -113 -406 -123c-71.333 -22.667 -148 -32 -230 -28v-3c-106.667 2 -191.667 31.167 -255 87.5s-95 133.833 -95 232.5c0 73.333 -6.33301 124.333 -19 153
c-12 6.66699 -27.333 10 -46 10c-16 0 -42 -4.16699 -78 -12.5s-63 -12.5 -81 -12.5c-31.333 -10 -64.333 -21.167 -99 -33.5s-63.334 -28.833 -86.001 -49.5c-42.667 -26.667 -85.667 -72.667 -129 -138c-8 -43.333 -0.666992 -77.333 22 -102c36.667 -18 92 -30 166 -36
c86 -6.66699 142.333 -13 169 -19c42.667 -12 64 -55 64 -129c0 -88 -29.667 -186 -89 -294c-53.333 -96.667 -113.666 -177.667 -180.999 -243c-78 -76 -167.333 -138.333 -268 -187c-75.333 -31.333 -152 -47 -230 -47c-126.667 0 -240.834 37 -342.501 111
s-171.834 173.333 -210.501 298c-39.333 114.667 -48.666 230.334 -27.999 347.001c17.333 86.667 41.666 157.334 72.999 212.001zM1116 2104c8 2.66699 13.335 -1.33301 16.002 -12l6 -31c2 -16.667 -0.166992 -43.5 -6.5 -80.5s-9.5 -64.167 -9.5 -81.5
c0 -43.333 16.333 -78.333 49 -105c46 -8 86 -3 120 15c24 23.333 36 52.333 36 87c0 10.667 -3 35.667 -9 75c-6.66699 32.667 -7.66699 58.667 -3 78l34 81h13c10 -21.333 15 -48.333 15 -81c0 -10.667 -1.33301 -29.334 -4 -56.001v-59c0 -50 13 -86.333 39 -109
c44 -33.333 84.333 -43.666 121 -30.999l19 21c-4 16.667 -14 52 -30 106c-14.667 46 -22 82.333 -22 109c0 36.667 11 67.667 33 93h10c2 -27.333 13.667 -74 35 -140c22 -56 33 -99.333 33 -130c0 -25.333 -13.333 -72 -40 -140c-41.333 -40 -86 -58.333 -134 -55
c-54 18 -87.333 49.667 -100 95c-28.667 -59.333 -76.334 -89 -143.001 -89c-20.667 0 -41.334 3.66699 -62.001 11c-44 27.333 -66 74 -66 140c0 12.667 2.33301 46 7 100c4 41.333 4 73.333 0 96zM851.998 2158c54 -80.667 81 -180.333 81 -299
c0 -48 -8.33301 -109 -25 -183c-22.667 -93.333 -48.667 -140 -78 -140c-7.33301 10.667 -11 21.334 -11 32.001c0 9.33301 3.33301 25.5 10 48.5s10 41.333 10 55v44.5c0 31.333 -8.66699 80.166 -26 146.499s-26 115.833 -26 148.5c0 58.667 21.667 107.667 65 147z
M915.998 2234c-64 -5.33301 -136.667 2 -218 22c-28.667 6.66699 -57.334 5.66699 -86.001 -3c-19.333 -6 -43 -27.667 -71 -65s-55.333 -57 -82 -59c-2 2 -3 4 -3 6c0 4.66699 1 8 3 10c60.667 82.667 104.334 136.334 131.001 161c58 54 120 78.667 186 74
c50 -16 97.667 -24 143 -24c114.667 0 204.667 39.333 270 118c8.66699 10.667 17.167 23.667 25.5 39s18.5 17.666 30.5 7c-22 -70 -64.667 -133.5 -128 -190.5s-130.333 -88.833 -201 -95.5zM2162 1314l62 215l603 265c8 2 12 1 12 -3c0 -2 -1 -7 -3 -15l-81 -222
l-579 -259c-7.33301 -0.666992 -12 -0.666992 -14 0c-2.66699 4 -2.66699 10.333 0 19z" />
    <glyph glyph-name="uniFC52" unicode="&#xfeeb;&#xfee2;" horiz-adv-x="2659" arabic-form="isolated" 
d="M813 511c-18 -8 -28 -21 -30 -39c92 -131.333 198.667 -197 320 -197c18 0 36 1 54 3c70 22 113 42.667 129 62l-153 138c-63.333 48.667 -124 73 -182 73c-28 0 -57.333 -6 -88 -18zM2525 241c-39.333 -18 -91 -25.001 -155 -21.001c-116 4 -169 7 -159 9
c-112.667 16 -223 23 -331 21c-150 -35.333 -246.667 -53 -290 -53c-86 0 -161.333 27 -226 81l-23 -3c-60.667 -90.667 -110.667 -154 -150 -190c-68 -61.333 -139.333 -92 -214 -92c-99.333 0 -189 42.667 -269 128c-12 4 -23 20.333 -33 49c-8 22 -20.333 31 -37 27
l-58 -185c-107.333 -40.667 -282 -88 -524 -142c-20.667 11.333 -21.667 23.333 -3 36l597 372c28.667 270 120 457 274 561c20 5.33301 40.667 8 62 8c90 0 202.5 -62.5 337.5 -187.5s244.5 -187.5 328.5 -187.5c36.667 0 73.667 8 111 24c8 28.667 16 69.667 24 123
c-4 68 0 137.5 12 208.5s76.333 220.5 193 448.5c50 -80 137.667 -157.667 263 -233c152.667 -90.667 249.667 -156 291 -196c58.667 -82 75.667 -190.167 51 -324.5s-48.667 -228.166 -72 -281.499zM2519 516.999c-6 26.667 -22.667 52.667 -50 78
c-38.667 34 -102 69.333 -190 106c-23.333 -76 -42 -132 -56 -168c88 -16.667 155.667 -27 203 -31zM2105 562.999c36 8 63 23.667 81 47c-12 60.667 -22 99.667 -30 117c-59.333 70.667 -126 103 -200 97c-62 -32.667 -96 -78.667 -102 -138c19.333 -66 69 -115 149 -147
c32 8 66 16 102 24z" />
    <glyph glyph-name="uniFC53" unicode="&#xfeeb;&#xfef0;" horiz-adv-x="2099" arabic-form="isolated" 
d="M1939 645c-83.333 -29.333 -235.666 -27.333 -456.999 6c-121.333 14 -216 19 -284 15c-96 -20 -178 -61 -246 -123c211.333 -34 335.333 -66.333 372 -97c8 -35.333 12 -72.333 12 -111c0 -106 -24.333 -203 -73 -291c-72 -129.333 -166 -236 -282 -320
c-129.333 -96 -261.333 -144 -396 -144c-101.333 0 -196.5 28.833 -285.5 86.5s-157 133.667 -204 228s-70.5 202.166 -70.5 323.499c0 168 43 310.333 129 427c26 37.333 51.5 71.333 76.5 102s58.167 59.334 99.5 86.001c30.667 -5.33301 37.667 -21.5 21 -48.5
s-36 -49.5 -58 -67.5c-121.333 -152 -182 -276.333 -182 -373c0 -94 30 -177 90 -249l15 -18l-3 -3c54.667 -82 140.667 -138.667 258 -170c64.667 -22 132 -33 202 -33c188 0 366 85 534 255c2 4 5.83301 10 11.5 18s8.5 15.667 8.5 23c-2 4 -3 7 -3 9
c-30.667 18 -90.334 28 -179.001 30c-90 2 -155.333 22.333 -196 61c-4 41.333 -6 78.333 -6 111c0 147.333 46 254 138 320c52.667 26 129 70 229 132c-8 36.667 -11 84.667 -9 144c6 96 9 140 9 132c4 10 24.667 76.333 62 199c22.667 82 49.667 146.667 81 194
c20 38.667 44.333 100 73 184c12 -4 22 -15 30 -33l23 -43c42.667 -51.333 117 -100.333 223 -147c123.333 -56 202.333 -97 237 -123c76 -60 116 -137 120 -231c10 -213.333 -30 -367 -120 -461zM1687 1149c-14.667 -82 -35 -156 -61 -222c92 -18 208.333 -20 349 -6
c-57.333 96 -153.333 172 -288 228zM1582 1131c-12 65.333 -46.668 104.169 -104.001 116.502s-107.666 1.16602 -150.999 -33.501c-26 -47.333 -40 -77.333 -42 -90c4.66699 -104.667 43.667 -161.834 117 -171.501s122.333 -4.5 147 15.5c36 38.667 47 93 33 163z" />
    <glyph glyph-name="uniFC54" unicode="&#xfbac;&#xfef2;" horiz-adv-x="2086" arabic-form="isolated" 
d="M1939 645c-83.333 -29.333 -235.666 -27.333 -456.999 6c-121.333 14 -216 19 -284 15c-96 -20 -178 -61 -246 -123c211.333 -34 335.333 -66.333 372 -97c8 -35.333 12 -72.333 12 -111c0 -106 -24.333 -203 -73 -291c-72 -129.333 -166 -236 -282 -320
c-129.333 -96 -261.333 -144 -396 -144c-101.333 0 -196.5 28.833 -285.5 86.5s-157 133.667 -204 228s-70.5 202.166 -70.5 323.499c0 168 43 310.333 129 427c26 37.333 51.5 71.333 76.5 102s58.167 59.334 99.5 86.001c30.667 -5.33301 37.667 -21.5 21 -48.5
s-36 -49.5 -58 -67.5c-121.333 -152 -182 -276.333 -182 -373c0 -94 30 -177 90 -249l15 -18l-3 -3c54.667 -82 140.667 -138.667 258 -170c64.667 -22 132 -33 202 -33c188 0 366 85 534 255c2 4 5.83301 10 11.5 18s8.5 15.667 8.5 23c-2 4 -3 7 -3 9
c-30.667 18 -90.334 28 -179.001 30c-90 2 -155.333 22.333 -196 61c-4 41.333 -6 78.333 -6 111c0 147.333 46 254 138 320c52.667 26 129 70 229 132c-8 36.667 -11 84.667 -9 144c6 96 9 140 9 132c4 10 24.667 76.333 62 199c22.667 82 49.667 146.667 81 194
c20 38.667 44.333 100 73 184c12 -4 22 -15 30 -33l23 -43c42.667 -51.333 117 -100.333 223 -147c123.333 -56 202.333 -97 237 -123c76 -60 116 -137 120 -231c10 -213.333 -30 -367 -120 -461zM1687 1149c-14.667 -82 -35 -156 -61 -222c92 -18 208.333 -20 349 -6
c-57.333 96 -153.333 172 -288 228zM1582 1131c-12 65.333 -46.668 104.169 -104.001 116.502s-107.666 1.16602 -150.999 -33.501c-26 -47.333 -40 -77.333 -42 -90c4.66699 -104.667 43.667 -161.834 117 -171.501s122.333 -4.5 147 15.5c36 38.667 47 93 33 163z" />
    <glyph glyph-name="uniFC55" unicode="&#xfbfe;&#xfe9e;" horiz-adv-x="1619" arabic-form="isolated" 
d="M355 637c40 37.333 104.665 86.999 193.998 148.999c-2 5.33301 -7.66699 8.5 -17 9.5s-14.666 2.5 -15.999 4.5c-74.667 3.33301 -149.334 7 -224.001 11c-86 6.66699 -156.667 18.334 -212 35.001c0 21.333 8.5 51 25.5 89s27.833 67.667 32.5 89
c18.667 47.333 58.667 87.333 120 120l154 80l232 104c92 42 159 96.333 201 163l75 146c30 58 65 101 105 129c42 10 81.333 -5 118 -45c30.667 -32.667 46 -72 46 -118c0 -24.667 -5.66699 -59 -17 -103c-11.333 -53.333 -18.666 -89 -21.999 -107
c0 -34 -5.33301 -44 -16 -30c-9.33301 18.667 -25.333 46.667 -48 84s-48.667 56.666 -78 57.999c-56.667 4 -100.334 -23.333 -131.001 -82c-40 -78.667 -71 -126 -93 -142c-45.333 -51.333 -117.666 -92.333 -216.999 -123c-126 -40 -203.333 -68.333 -232 -85
c170 -29.333 343 -44 519 -44c101.333 0 204.666 4.66699 309.999 14l143 -5c-4 -38.667 -20.333 -88.334 -49 -149.001c-8 -40 -35.667 -62.667 -83 -68c-40 -4.66699 -80 -9 -120 -13c-135.333 -20.667 -253 -50 -353 -88c-160.667 -63.333 -317 -178 -469 -344
c-67.333 -102.667 -101 -196.667 -101 -282c0 -69.333 19.667 -139.666 59 -210.999c25.333 -42 73.333 -101.333 144 -178c160.667 -112 327.334 -168 500.001 -168c54.667 0 134 2 238 6c87.333 14.667 218 32 392 52l-9 -24c-84 -49.333 -211 -117 -381 -203
c-149.333 -69.333 -271.666 -104 -366.999 -104c-139.333 0 -280 47.667 -422 143c-109.333 72.667 -182 172 -218 298c-21.333 80.667 -32 159.334 -32 236.001c-7.33301 305.333 99 537.333 319 696zM931.998 487.999l-0.00195312 9.99805
c33.333 46.667 81.333 110.334 144 191.001h7c12.667 -14 48.334 -42.667 107.001 -86l85 -63c32 44.667 75 101.334 129 170.001h7c50.667 -54 114.334 -103 191.001 -147c2 -1.33301 3 -4.33301 3 -9l-140 -187c-0.666992 -1.33301 -2.66699 -2 -6 -2
c-4.66699 0 -12 1.66699 -22 5c-47.333 22 -106.333 68.667 -177 140v1l-123 -165c-0.666992 -1.33301 -2.66699 -2 -6 -2c-4.66699 0 -12 1.66699 -22 5c-47.333 22 -106.333 68.333 -177 139zM584.996 65.9971l0.000976562 11l158 211h8c56 -60.667 126 -115 210 -163
c2.66699 -2.66699 4 -5.66699 4 -9l-153 -207c-2 -0.666992 -4.66699 -1 -8 -1c-4.66699 0 -12.334 2 -23.001 6c-52.667 24 -118 74.667 -196 152z" />
    <glyph glyph-name="uniFC56" unicode="&#xfbfe;&#xfea2;" horiz-adv-x="1511" arabic-form="isolated" 
d="M355 637c40 37.333 104.665 86.999 193.998 148.999c-2 5.33301 -7.66699 8.5 -17 9.5s-14.666 2.5 -15.999 4.5c-74.667 3.33301 -149.334 7 -224.001 11c-86 6.66699 -156.667 18.334 -212 35.001c0 21.333 8.5 51 25.5 89s27.833 67.667 32.5 89
c18.667 47.333 58.667 87.333 120 120l154 80l232 104c92 42 159 96.333 201 163l75 146c30 58 65 101 105 129c42 10 81.333 -5 118 -45c30.667 -32.667 46 -72 46 -118c0 -24.667 -5.66699 -59 -17 -103c-11.333 -53.333 -18.666 -89 -21.999 -107
c0 -34 -5.33301 -44 -16 -30c-9.33301 18.667 -25.333 46.667 -48 84s-48.667 56.666 -78 57.999c-56.667 4 -100.334 -23.333 -131.001 -82c-40 -78.667 -71 -126 -93 -142c-45.333 -51.333 -117.666 -92.333 -216.999 -123c-126 -40 -203.333 -68.333 -232 -85
c170 -29.333 343 -44 519 -44c101.333 0 204.666 4.66699 309.999 14l143 -5c-4 -38.667 -20.333 -88.334 -49 -149.001c-8 -40 -35.667 -62.667 -83 -68c-40 -4.66699 -80 -9 -120 -13c-135.333 -20.667 -253 -50 -353 -88c-160.667 -63.333 -317 -178 -469 -344
c-67.333 -102.667 -101 -196.667 -101 -282c0 -69.333 19.667 -139.666 59 -210.999c25.333 -42 73.333 -101.333 144 -178c160.667 -112 327.334 -168 500.001 -168c54.667 0 134 2 238 6c87.333 14.667 218 32 392 52l-9 -24c-84 -49.333 -211 -117 -381 -203
c-149.333 -69.333 -271.666 -104 -366.999 -104c-139.333 0 -280 47.667 -422 143c-109.333 72.667 -182 172 -218 298c-21.333 80.667 -32 159.334 -32 236.001c-7.33301 305.333 99 537.333 319 696zM835.998 454.999l-0.00195312 9.99805
c33.333 46.667 81.333 110.334 144 191.001h7c12.667 -14 48.334 -42.667 107.001 -86l85 -63c32 44.667 75 101.334 129 170.001h7c50.667 -54 114.334 -103 191.001 -147c2 -1.33301 3 -4.33301 3 -9l-140 -187c-0.666992 -1.33301 -2.66699 -2 -6 -2
c-4.66699 0 -12 1.66699 -22 5c-47.333 22 -106.333 68.667 -177 140v1l-123 -165c-0.666992 -1.33301 -2.66699 -2 -6 -2c-4.66699 0 -12 1.66699 -22 5c-47.333 22 -106.333 68.333 -177 139z" />
    <glyph glyph-name="uniFC57" unicode="&#xfbfe;&#xfea6;" horiz-adv-x="1524" arabic-form="isolated" 
d="M355 637c40 37.333 104.665 86.999 193.998 148.999c-2 5.33301 -7.66699 8.5 -17 9.5s-14.666 2.5 -15.999 4.5c-74.667 3.33301 -149.334 7 -224.001 11c-86 6.66699 -156.667 18.334 -212 35.001c0 21.333 8.5 51 25.5 89s27.833 67.667 32.5 89
c18.667 47.333 58.667 87.333 120 120l154 80l232 104c92 42 159 96.333 201 163l75 146c30 58 65 101 105 129c42 10 81.333 -5 118 -45c30.667 -32.667 46 -72 46 -118c0 -24.667 -5.66699 -59 -17 -103c-11.333 -53.333 -18.666 -89 -21.999 -107
c0 -34 -5.33301 -44 -16 -30c-9.33301 18.667 -25.333 46.667 -48 84s-48.667 56.666 -78 57.999c-56.667 4 -100.334 -23.333 -131.001 -82c-40 -78.667 -71 -126 -93 -142c-45.333 -51.333 -117.666 -92.333 -216.999 -123c-126 -40 -203.333 -68.333 -232 -85
c170 -29.333 343 -44 519 -44c101.333 0 204.666 4.66699 309.999 14l143 -5c-4 -38.667 -20.333 -88.334 -49 -149.001c-8 -40 -35.667 -62.667 -83 -68c-40 -4.66699 -80 -9 -120 -13c-135.333 -20.667 -253 -50 -353 -88c-160.667 -63.333 -317 -178 -469 -344
c-67.333 -102.667 -101 -196.667 -101 -282c0 -69.333 19.667 -139.666 59 -210.999c25.333 -42 73.333 -101.333 144 -178c160.667 -112 327.334 -168 500.001 -168c54.667 0 134 2 238 6c87.333 14.667 218 32 392 52l-9 -24c-84 -49.333 -211 -117 -381 -203
c-149.333 -69.333 -271.666 -104 -366.999 -104c-139.333 0 -280 47.667 -422 143c-109.333 72.667 -182 172 -218 298c-21.333 80.667 -32 159.334 -32 236.001c-7.33301 305.333 99 537.333 319 696zM839.998 459.999l-0.00195312 9.99805
c33.333 46.667 81.333 110.334 144 191.001h7c12.667 -14 48.334 -42.667 107.001 -86l85 -63c32 44.667 75 101.334 129 170.001h7c50.667 -54 114.334 -103 191.001 -147c2 -1.33301 3 -4.33301 3 -9l-140 -187c-0.666992 -1.33301 -2.66699 -2 -6 -2
c-4.66699 0 -12 1.66699 -22 5c-47.333 22 -106.333 68.667 -177 140v1l-123 -165c-0.666992 -1.33301 -2.66699 -2 -6 -2c-4.66699 0 -12 1.66699 -22 5c-47.333 22 -106.333 68.333 -177 139zM240.996 1538l0.000976562 11l158 211h8c56 -60.667 126 -115 210 -163
c2.66699 -2.66699 4 -5.66699 4 -9l-153 -207c-2 -0.666992 -4.66699 -1 -8 -1c-4.66699 0 -12.334 2 -23.001 6c-52.667 24 -118 74.667 -196 152z" />
    <glyph glyph-name="uniFC59" unicode="&#xfbfe;&#xfef0;" horiz-adv-x="1419" arabic-form="isolated" 
d="M1283 -33c-16 -22 -71 -79.334 -165 -172.001c-150 -129.333 -320 -194 -510 -194c-231.333 0 -401.333 104.667 -510 314c-39.333 74.667 -62.333 163.667 -69 267c-2.66699 225.333 82.666 421.666 255.999 588.999l30 9l-6 -33l-112 -207
c-46 -82 -67.667 -153.333 -65 -214c2 -119.333 66.667 -226 194 -320c116 -88 235.333 -132 358 -132c139.333 0 299.333 55 480 165l85 65.5c28.667 22.333 48 47.166 58 74.499c-36 40.667 -101 69 -195 85c-129.333 20 -204.666 34.333 -225.999 43
s-26 31.334 -14 68.001c6 51.333 21.333 125 46 221c51.333 20.667 87 37 107 49c38.667 22 71.667 48.667 99 80c-6 126.667 -83 250.667 -231 372c4.66699 50.667 8 129.667 10 237c0 12 1 25 3 39c2 8.66699 11 9.66699 27 3c121.333 -90 202.333 -196.667 243 -320
c38 -130 38.667 -252.333 2 -367c-6 -29.333 -24 -72.333 -54 -129c14 -9.33301 57 -22 129 -38c54.667 -14 92.667 -35.333 114 -64c32.667 -47.333 45.667 -87.333 39 -120c-2 -49.333 -14 -110.166 -36 -182.499s-51 -135.166 -87 -188.499zM634 -698.001
l-0.00195312 9.99805c33.333 46.667 81.333 110.334 144 191.001h7c12.667 -14 48.334 -42.667 107.001 -86l85 -63c32 44.667 75 101.334 129 170.001h7c50.667 -54 114.334 -103 191.001 -147c2 -1.33301 3 -4.33301 3 -9l-140 -187c-0.666992 -1.33301 -2.66699 -2 -6 -2
c-4.66699 0 -12 1.66699 -22 5c-47.333 22 -106.333 68.667 -177 140v1l-123 -165c-0.666992 -1.33301 -2.66699 -2 -6 -2c-4.66699 0 -12 1.66699 -22 5c-47.333 22 -106.333 68.333 -177 139z" />
    <glyph glyph-name="uniFC64" unicode="&#xfe8c;&#xfeae;" horiz-adv-x="1726" arabic-form="final" 
d="M1743 -1c-125.333 -3.33301 -238.001 26.667 -338.001 90c-64 50 -113 123 -147 219c-8.66699 26 -29 114 -61 264c-23.333 -57.333 -43 -100.333 -59 -129c-28.667 -49.333 -77 -87.333 -145 -114c-28 -12 -65.667 -20 -113 -24c-38.667 -2 -67.667 -4 -87 -6
c-6 -97.333 -12 -163 -18 -197c-12.667 -72 -34 -139 -64 -201c-76 -92 -175.667 -151 -299 -177c-110 -4 -221.333 -13 -334 -27c-33.333 0 -51 7 -53 21c33.333 27.333 83 56 149 86c74.667 34.667 125.667 60.667 153 78l214 124c84 53.333 138 112 162 176
c5.33301 46.667 -9.66699 100.667 -45 162c-52.667 90.667 -81 141 -85 151c-16 39.333 -27 80.333 -33 123c-3.33301 53.333 9.66699 100.333 39 141c20 -38.667 36.333 -65 49 -79c22 -29.333 47.667 -49 77 -59c60.667 -16.667 120 -25 178 -25
c119.333 0 211.333 37 276 111c-4 26.667 -6 55 -6 85c-31.333 95.333 -17.666 200 41.001 314h24l24 -249c10.667 -96 26 -177.667 46 -245c47.333 -162 136.333 -263.333 267 -304c60 -19.333 122.667 -30 188 -32v-277zM1443 1337l-274.998 -102.998
c-106 -40 -193.667 -82 -263 -126c-7.33301 1.33301 -12 5.66602 -14 12.999c4 24.667 23.667 50.334 59 77.001l83 56l71 36c-6.66699 6.66699 -14.167 13.5 -22.5 20.5s-14.833 13.5 -19.5 19.5c-24.667 24.667 -37.334 52 -38.001 82
c3.33301 21.333 11.333 44.666 24 69.999c20 31.333 31.667 51.666 35 60.999c56.667 97.333 119 145 187 143c78 -12 126 -44.667 144 -98c6.66699 -6.66699 12.667 -22 18 -46c0 -10 -7 -16.667 -21 -20c-37.333 26.667 -77.333 45 -120 55
c-58.667 12.667 -111 5 -157 -23c-3.33301 -4 -6 -8 -8 -12c0 -4.66699 2.33301 -18 7 -40c39.333 -54.667 91.333 -88.334 156 -101.001c20.667 -6.66699 42.667 -9.33398 66 -8.00098c33.333 12.667 84.666 29.667 153.999 51
c0.666992 -3.33301 0.666992 -7.66602 0 -12.999c-1.33301 -9.33301 -6.66602 -24.333 -15.999 -45c-8 -21.333 -13 -32.333 -15 -33c-12.667 -7.33301 -24.334 -12.666 -35.001 -15.999z" />
    <glyph glyph-name="uniFC65" unicode="&#xfe8c;&#xfeb0;" horiz-adv-x="1728" arabic-form="final" 
d="M1743 -1c-125.333 -3.33301 -238.001 26.667 -338.001 90c-64 50 -113 123 -147 219c-8.66699 26 -29 114 -61 264c-23.333 -57.333 -43 -100.333 -59 -129c-28.667 -49.333 -77 -87.333 -145 -114c-28 -12 -65.667 -20 -113 -24c-38.667 -2 -67.667 -4 -87 -6
c-6 -97.333 -12 -163 -18 -197c-12.667 -72 -34 -139 -64 -201c-76 -92 -175.667 -151 -299 -177c-110 -4 -221.333 -13 -334 -27c-33.333 0 -51 7 -53 21c33.333 27.333 83 56 149 86c74.667 34.667 125.667 60.667 153 78l214 124c84 53.333 138 112 162 176
c5.33301 46.667 -9.66699 100.667 -45 162c-52.667 90.667 -81 141 -85 151c-16 39.333 -27 80.333 -33 123c-3.33301 53.333 9.66699 100.333 39 141c20 -38.667 36.333 -65 49 -79c22 -29.333 47.667 -49 77 -59c60.667 -16.667 120 -25 178 -25
c119.333 0 211.333 37 276 111c-4 26.667 -6 55 -6 85c-31.333 95.333 -17.666 200 41.001 314h24l24 -249c10.667 -96 26 -177.667 46 -245c47.333 -162 136.333 -263.333 267 -304c60 -19.333 122.667 -30 188 -32v-277zM1434 1356l-274.998 -102.998
c-106 -40 -193.667 -82 -263 -126c-7.33301 1.33301 -12 5.66602 -14 12.999c4 24.667 23.667 50.334 59 77.001l83 56l71 36c-6.66699 6.66699 -14.167 13.5 -22.5 20.5s-14.833 13.5 -19.5 19.5c-24.667 24.667 -37.334 52 -38.001 82
c3.33301 21.333 11.333 44.666 24 69.999c20 31.333 31.667 51.666 35 60.999c56.667 97.333 119 145 187 143c78 -12 126 -44.667 144 -98c6.66699 -6.66699 12.667 -22 18 -46c0 -10 -7 -16.667 -21 -20c-37.333 26.667 -77.333 45 -120 55
c-58.667 12.667 -111 5 -157 -23c-3.33301 -4 -6 -8 -8 -12c0 -4.66699 2.33301 -18 7 -40c39.333 -54.667 91.333 -88.334 156 -101.001c20.667 -6.66699 42.667 -9.33398 66 -8.00098c33.333 12.667 84.666 29.667 153.999 51
c0.666992 -3.33301 0.666992 -7.66602 0 -12.999c-1.33301 -9.33301 -6.66602 -24.333 -15.999 -45c-8 -21.333 -13 -32.333 -15 -33c-12.667 -7.33301 -24.334 -12.666 -35.001 -15.999zM369.001 1047l0.000976562 11l158 211h8c56 -60.667 126 -115 210 -163
c2.66699 -2.66699 4 -5.66699 4 -9l-153 -207c-2 -0.666992 -4.66699 -1 -8 -1c-4.66699 0 -12.334 2 -23.001 6c-52.667 24 -118 74.667 -196 152z" />
    <glyph glyph-name="uniFC67" unicode="&#xfe8c;&#xfee6;" horiz-adv-x="2314" arabic-form="final" 
d="M2339 0c-137.333 -4 -234.335 6.66797 -291.002 32.001c-95.333 50.667 -163.333 141.334 -204 272.001c-20 97.333 -26.667 205.666 -20 324.999c-9.33301 2 -10.333 0 -3 -6c-6 -48.667 -27.833 -97 -65.5 -145s-90.167 -77.333 -157.5 -88s-122.333 -18 -165 -22
l-9 -12c1.33301 -110 -2.66699 -187.333 -12 -232c-16 -86.667 -44.333 -163.334 -85 -230.001c-88.667 -168.667 -244 -293.667 -466 -375c-71.333 -17.333 -136 -26 -194 -26c-208 16.667 -371.333 97.667 -490 243c-101.333 122.667 -151.666 272 -150.999 448
c6 211.333 83.667 375.333 233 492c6 8 13 11 21 9c9.33301 -14 2 -38 -22 -72s-38 -59.667 -42 -77c-46.667 -64.667 -74.334 -145 -83.001 -241c0 -78 16.667 -147 50 -207c42.667 -114 165.667 -205.333 369 -274c38.667 -7.33301 77 -11 115 -11
c205.333 0 389 62.667 551 188c74.667 82.667 112 156 112 220c0 14.667 -2 28 -6 40c-18 63.333 -64.667 154.333 -140 273c-11.333 69.333 -12.166 124 -2.49902 164s22.167 74.333 37.5 103c61.333 -88.667 157.333 -134.667 288 -138c30 0 66.667 2 110 6
c92 13.333 153.333 57.333 184 132c-25.333 166 -9.66602 281 47.001 345c20 -30.667 32 -81 36 -151c2.66699 -55.333 5 -110.333 7 -165c4 -62 19.333 -146.833 46 -254.5s71.667 -183 135 -226s152.333 -64.5 267 -64.5v-275zM2160 1345l-275 -102.998
c-106 -40 -193.667 -82 -263 -126c-7.33301 1.33301 -12 5.66602 -14 12.999c4 24.667 23.667 50.334 59 77.001l83 56l71 36c-6.66699 6.66699 -14.167 13.5 -22.5 20.5s-14.833 13.5 -19.5 19.5c-24.667 24.667 -37.334 52 -38.001 82
c3.33301 21.333 11.333 44.666 24 69.999c20 31.333 31.667 51.666 35 60.999c56.667 97.333 119 145 187 143c78 -12 126 -44.667 144 -98c6.66699 -6.66699 12.667 -22 18 -46c0 -10 -7 -16.667 -21 -20c-37.333 26.667 -77.333 45 -120 55
c-58.667 12.667 -111 5 -157 -23c-3.33301 -4 -6 -8 -8 -12c0 -4.66699 2.33301 -18 7 -40c39.333 -54.667 91.333 -88.334 156 -101.001c20.667 -6.66699 42.667 -9.33398 66.001 -8.00098c33.333 12.667 84.666 29.667 154 51
c0.666992 -3.33301 0.666992 -7.66602 0 -12.999c-1.33301 -9.33301 -6.66602 -24.333 -16 -45c-8 -21.333 -13 -32.333 -15 -33c-12.667 -7.33301 -24.334 -12.666 -35 -15.999zM536.998 334.003l0.000976562 11l158 211h8c56 -60.667 126 -115 210 -163
c2.66699 -2.66699 4 -5.66699 4 -9l-153 -207c-2 -0.666992 -4.66699 -1 -8 -1c-4.66699 0 -12.334 2 -23.001 6c-52.667 24 -118 74.667 -196 152z" />
    <glyph glyph-name="uniFC68" unicode="&#xfe8c;&#xfef0;" horiz-adv-x="1830" arabic-form="final" 
d="M274 343c12 14 22.001 20.998 30.001 20.998c9.33301 0 15 -9 17 -27c-26 -62 -62 -133.833 -108 -215.5s-67.667 -151.167 -65 -208.5c0 -167.333 70.667 -296.333 212 -387c82 -53.333 185.333 -80 310 -80c258 0 454.667 94.333 590 283l6 32
c-10 16 -34.333 24 -73 24c-37.333 -0.666992 -87.666 2.33301 -150.999 9c-100.667 0.666992 -158 33.667 -172 99c-8 44.667 -12 89.667 -12 135c6.66699 204.667 94.334 385.667 263.001 543c131.333 94 249.666 143.667 354.999 149
c41.333 3.33301 73.166 -1.83398 95.499 -15.501s35.5 -27.5 39.5 -41.5c8 -32.667 6.33301 -90.667 -5 -174c-8.66699 -74 3 -129.5 35 -166.5s107 -52.833 225 -47.5v-278c-146.667 4.66699 -242 37.334 -286 98.001s-65.833 128.5 -65.5 203.5s-6.5 127.5 -20.5 157.5
c-12 4.66699 -26.667 7 -44 7c-16 0 -53 -6.16699 -111 -18.5s-132 -42.166 -222 -89.499c-49.333 -24.667 -95.666 -69.667 -138.999 -135c-8 -44.667 -1 -79.667 21 -105c36.667 -18 91 -29 163 -33c88 -8.66699 144.667 -16 170 -22c44.667 -12 67 -53.667 67 -125
c0 -88 -31 -187.333 -93 -298c-50.667 -99.333 -111 -182 -181 -248c-78 -81.333 -166 -142.333 -264 -183c-76 -28 -153.667 -42 -233 -42c-126.667 0 -240.834 36.333 -342.501 109s-170.834 172.334 -207.501 299.001c-35.333 113.333 -46 229.333 -32 348
c22.667 85.333 46.5 153 71.5 203s77.167 123.333 156.5 220zM1771 1053l-274.998 -102.998c-106 -40 -193.667 -82 -263 -126c-7.33301 1.33301 -12 5.66602 -14 12.999c4 24.667 23.667 50.334 59 77.001l83 56l71 36c-6.66699 6.66699 -14.167 13.5 -22.5 20.5
s-14.833 13.5 -19.5 19.5c-24.667 24.667 -37.334 52 -38.001 82c3.33301 21.333 11.333 44.666 24 69.999c20 31.333 31.667 51.666 35 60.999c56.667 97.333 119 145 187 143c78 -12 126 -44.667 144 -98c6.66699 -6.66699 12.667 -22 18 -46c0 -10 -7 -16.667 -21 -20
c-37.333 26.667 -77.333 45 -120 55c-58.667 12.667 -111 5 -157 -23c-3.33301 -4 -6 -8 -8 -12c0 -4.66699 2.33301 -18 7 -40c39.333 -54.667 91.333 -88.334 156 -101.001c20.667 -6.66699 42.667 -9.33398 66 -8.00098c33.333 12.667 84.666 29.667 153.999 51
c0.666992 -3.33301 0.666992 -7.66602 0 -12.999c-1.33301 -9.33301 -6.66602 -24.333 -15.999 -45c-8 -21.333 -13 -32.333 -15 -33c-12.667 -7.33301 -24.334 -12.666 -35.001 -15.999z" />
    <glyph glyph-name="uniFC6A" unicode="&#xfe92;&#xfeae;" horiz-adv-x="1722" arabic-form="final" 
d="M1743 -1c-125.333 -3.33301 -238.001 26.667 -338.001 90c-64 50 -113 123 -147 219c-8.66699 26 -29 114 -61 264c-23.333 -57.333 -43 -100.333 -59 -129c-28.667 -49.333 -77 -87.333 -145 -114c-28 -12 -65.667 -20 -113 -24c-38.667 -2 -67.667 -4 -87 -6
c-6 -97.333 -12 -163 -18 -197c-12.667 -72 -34 -139 -64 -201c-76 -92 -175.667 -151 -299 -177c-110 -4 -221.333 -13 -334 -27c-33.333 0 -51 7 -53 21c33.333 27.333 83 56 149 86c74.667 34.667 125.667 60.667 153 78l214 124c84 53.333 138 112 162 176
c5.33301 46.667 -9.66699 100.667 -45 162c-52.667 90.667 -81 141 -85 151c-16 39.333 -27 80.333 -33 123c-3.33301 53.333 9.66699 100.333 39 141c20 -38.667 36.333 -65 49 -79c22 -29.333 47.667 -49 77 -59c60.667 -16.667 120 -25 178 -25
c119.333 0 211.333 37 276 111c-4 26.667 -6 55 -6 85c-31.333 95.333 -17.666 200 41.001 314h24l24 -249c10.667 -96 26 -177.667 46 -245c47.333 -162 136.333 -263.333 267 -304c60 -19.333 122.667 -30 188 -32v-277zM1051 -140l0.000976562 11l158 211h8
c56 -60.667 126 -115 210 -163c2.66699 -2.66699 4 -5.66699 4 -9l-153 -207c-2 -0.666992 -4.66699 -1 -8 -1c-4.66699 0 -12.334 2 -23.001 6c-52.667 24 -118 74.667 -196 152z" />
    <glyph glyph-name="uniFC6B" unicode="&#xfe92;&#xfeb0;" horiz-adv-x="1728" arabic-form="final" 
d="M1743 -1c-125.333 -3.33301 -238.001 26.667 -338.001 90c-64 50 -113 123 -147 219c-8.66699 26 -29 114 -61 264c-23.333 -57.333 -43 -100.333 -59 -129c-28.667 -49.333 -77 -87.333 -145 -114c-28 -12 -65.667 -20 -113 -24c-38.667 -2 -67.667 -4 -87 -6
c-6 -97.333 -12 -163 -18 -197c-12.667 -72 -34 -139 -64 -201c-76 -92 -175.667 -151 -299 -177c-110 -4 -221.333 -13 -334 -27c-33.333 0 -51 7 -53 21c33.333 27.333 83 56 149 86c74.667 34.667 125.667 60.667 153 78l214 124c84 53.333 138 112 162 176
c5.33301 46.667 -9.66699 100.667 -45 162c-52.667 90.667 -81 141 -85 151c-16 39.333 -27 80.333 -33 123c-3.33301 53.333 9.66699 100.333 39 141c20 -38.667 36.333 -65 49 -79c22 -29.333 47.667 -49 77 -59c60.667 -16.667 120 -25 178 -25
c119.333 0 211.333 37 276 111c-4 26.667 -6 55 -6 85c-31.333 95.333 -17.666 200 41.001 314h24l24 -249c10.667 -96 26 -177.667 46 -245c47.333 -162 136.333 -263.333 267 -304c60 -19.333 122.667 -30 188 -32v-277zM1066 -107l0.000976562 11l158 211h8
c56 -60.667 126 -115 210 -163c2.66699 -2.66699 4 -5.66699 4 -9l-153 -207c-2 -0.666992 -4.66699 -1 -8 -1c-4.66699 0 -12.334 2 -23.001 6c-52.667 24 -118 74.667 -196 152zM373 1008l0.000976562 11l158 211h8c56 -60.667 126 -115 210 -163
c2.66699 -2.66699 4 -5.66699 4 -9l-153 -207c-2 -0.666992 -4.66699 -1 -8 -1c-4.66699 0 -12.334 2 -23.001 6c-52.667 24 -118 74.667 -196 152z" />
    <glyph glyph-name="uniFC6D" unicode="&#xfe92;&#xfee6;" horiz-adv-x="2314" arabic-form="final" 
d="M2339 0c-137.333 -4 -234.335 6.66797 -291.002 32.001c-95.333 50.667 -163.333 141.334 -204 272.001c-20 97.333 -26.667 205.666 -20 324.999c-9.33301 2 -10.333 0 -3 -6c-6 -48.667 -27.833 -97 -65.5 -145s-90.167 -77.333 -157.5 -88s-122.333 -18 -165 -22
l-9 -12c1.33301 -110 -2.66699 -187.333 -12 -232c-16 -86.667 -44.333 -163.334 -85 -230.001c-88.667 -168.667 -244 -293.667 -466 -375c-71.333 -17.333 -136 -26 -194 -26c-208 16.667 -371.333 97.667 -490 243c-101.333 122.667 -151.666 272 -150.999 448
c6 211.333 83.667 375.333 233 492c6 8 13 11 21 9c9.33301 -14 2 -38 -22 -72s-38 -59.667 -42 -77c-46.667 -64.667 -74.334 -145 -83.001 -241c0 -78 16.667 -147 50 -207c42.667 -114 165.667 -205.333 369 -274c38.667 -7.33301 77 -11 115 -11
c205.333 0 389 62.667 551 188c74.667 82.667 112 156 112 220c0 14.667 -2 28 -6 40c-18 63.333 -64.667 154.333 -140 273c-11.333 69.333 -12.166 124 -2.49902 164s22.167 74.333 37.5 103c61.333 -88.667 157.333 -134.667 288 -138c30 0 66.667 2 110 6
c92 13.333 153.333 57.333 184 132c-25.333 166 -9.66602 281 47.001 345c20 -30.667 32 -81 36 -151c2.66699 -55.333 5 -110.333 7 -165c4 -62 19.333 -146.833 46 -254.5s71.667 -183 135 -226s152.333 -64.5 267 -64.5v-275zM1520 -106.999l0.000976562 11l158 211h8
c56 -60.667 126 -115 210 -163c2.66699 -2.66699 4 -5.66699 4 -9l-153 -207c-2 -0.666992 -4.66699 -1 -8 -1c-4.66699 0 -12.334 2 -23.001 6c-52.667 24 -118 74.667 -196 152zM550.999 333.001l0.000976562 11l158 211h8c56 -60.667 126 -115 210 -163
c2.66699 -2.66699 4 -5.66699 4 -9l-153 -207c-2 -0.666992 -4.66699 -1 -8 -1c-4.66699 0 -12.334 2 -23.001 6c-52.667 24 -118 74.667 -196 152z" />
    <glyph glyph-name="uniFC6E" unicode="&#xfe92;&#xfef0;" horiz-adv-x="1856" arabic-form="final" 
d="M274 343c12 14 22.001 20.998 30.001 20.998c9.33301 0 15 -9 17 -27c-26 -62 -62 -133.833 -108 -215.5s-67.667 -151.167 -65 -208.5c0 -167.333 70.667 -296.333 212 -387c82 -53.333 185.333 -80 310 -80c258 0 454.667 94.333 590 283l6 32
c-10 16 -34.333 24 -73 24c-37.333 -0.666992 -87.666 2.33301 -150.999 9c-100.667 0.666992 -158 33.667 -172 99c-8 44.667 -12 89.667 -12 135c6.66699 204.667 94.334 385.667 263.001 543c131.333 94 249.666 143.667 354.999 149
c41.333 3.33301 73.166 -1.83398 95.499 -15.501s35.5 -27.5 39.5 -41.5c8 -32.667 6.33301 -90.667 -5 -174c-8.66699 -74 3 -129.5 35 -166.5s107 -52.833 225 -47.5v-278c-146.667 4.66699 -242 37.334 -286 98.001s-65.833 128.5 -65.5 203.5s-6.5 127.5 -20.5 157.5
c-12 4.66699 -26.667 7 -44 7c-16 0 -53 -6.16699 -111 -18.5s-132 -42.166 -222 -89.499c-49.333 -24.667 -95.666 -69.667 -138.999 -135c-8 -44.667 -1 -79.667 21 -105c36.667 -18 91 -29 163 -33c88 -8.66699 144.667 -16 170 -22c44.667 -12 67 -53.667 67 -125
c0 -88 -31 -187.333 -93 -298c-50.667 -99.333 -111 -182 -181 -248c-78 -81.333 -166 -142.333 -264 -183c-76 -28 -153.667 -42 -233 -42c-126.667 0 -240.834 36.333 -342.501 109s-170.834 172.334 -207.501 299.001c-35.333 113.333 -46 229.333 -32 348
c22.667 85.333 46.5 153 71.5 203s77.167 123.333 156.5 220zM1501 -288.002l0.000976562 11l158 211h8c56 -60.667 126 -115 210 -163c2.66699 -2.66699 4 -5.66699 4 -9l-153 -207c-2 -0.666992 -4.66699 -1 -8 -1c-4.66699 0 -12.334 2 -23.001 6
c-52.667 24 -118 74.667 -196 152z" />
    <glyph glyph-name="uniFC70" unicode="&#xfe98;&#xfeae;" horiz-adv-x="1724" arabic-form="final" 
d="M1743 -1c-125.333 -3.33301 -238.001 26.667 -338.001 90c-64 50 -113 123 -147 219c-8.66699 26 -29 114 -61 264c-23.333 -57.333 -43 -100.333 -59 -129c-28.667 -49.333 -77 -87.333 -145 -114c-28 -12 -65.667 -20 -113 -24c-38.667 -2 -67.667 -4 -87 -6
c-6 -97.333 -12 -163 -18 -197c-12.667 -72 -34 -139 -64 -201c-76 -92 -175.667 -151 -299 -177c-110 -4 -221.333 -13 -334 -27c-33.333 0 -51 7 -53 21c33.333 27.333 83 56 149 86c74.667 34.667 125.667 60.667 153 78l214 124c84 53.333 138 112 162 176
c5.33301 46.667 -9.66699 100.667 -45 162c-52.667 90.667 -81 141 -85 151c-16 39.333 -27 80.333 -33 123c-3.33301 53.333 9.66699 100.333 39 141c20 -38.667 36.333 -65 49 -79c22 -29.333 47.667 -49 77 -59c60.667 -16.667 120 -25 178 -25
c119.333 0 211.333 37 276 111c-4 26.667 -6 55 -6 85c-31.333 95.333 -17.666 200 41.001 314h24l24 -249c10.667 -96 26 -177.667 46 -245c47.333 -162 136.333 -263.333 267 -304c60 -19.333 122.667 -30 188 -32v-277zM832.999 1220l-0.00195312 9.99805
c33.333 46.667 81.333 110.334 144 191.001h7c12.667 -14 48.334 -42.667 107.001 -86l85 -63c32 44.667 75 101.334 129 170.001h7c50.667 -54 114.334 -103 191.001 -147c2 -1.33301 3 -4.33301 3 -9l-140 -187c-0.666992 -1.33301 -2.66699 -2 -6 -2
c-4.66699 0 -12 1.66699 -22 5c-47.333 22 -106.333 68.667 -177 140v1l-123 -165c-0.666992 -1.33301 -2.66699 -2 -6 -2c-4.66699 0 -12 1.66699 -22 5c-47.333 22 -106.333 68.333 -177 139z" />
    <glyph glyph-name="uniFC71" unicode="&#xfe98;&#xfeb0;" horiz-adv-x="1729" arabic-form="final" 
d="M1743 -1c-125.333 -3.33301 -238.001 26.667 -338.001 90c-64 50 -113 123 -147 219c-8.66699 26 -29 114 -61 264c-23.333 -57.333 -43 -100.333 -59 -129c-28.667 -49.333 -77 -87.333 -145 -114c-28 -12 -65.667 -20 -113 -24c-38.667 -2 -67.667 -4 -87 -6
c-6 -97.333 -12 -163 -18 -197c-12.667 -72 -34 -139 -64 -201c-76 -92 -175.667 -151 -299 -177c-110 -4 -221.333 -13 -334 -27c-33.333 0 -51 7 -53 21c33.333 27.333 83 56 149 86c74.667 34.667 125.667 60.667 153 78l214 124c84 53.333 138 112 162 176
c5.33301 46.667 -9.66699 100.667 -45 162c-52.667 90.667 -81 141 -85 151c-16 39.333 -27 80.333 -33 123c-3.33301 53.333 9.66699 100.333 39 141c20 -38.667 36.333 -65 49 -79c22 -29.333 47.667 -49 77 -59c60.667 -16.667 120 -25 178 -25
c119.333 0 211.333 37 276 111c-4 26.667 -6 55 -6 85c-31.333 95.333 -17.666 200 41.001 314h24l24 -249c10.667 -96 26 -177.667 46 -245c47.333 -162 136.333 -263.333 267 -304c60 -19.333 122.667 -30 188 -32v-277zM834.999 1229l-0.00195312 9.99805
c33.333 46.667 81.333 110.334 144 191.001h7c12.667 -14 48.334 -42.667 107.001 -86l85 -63c32 44.667 75 101.334 129 170.001h7c50.667 -54 114.334 -103 191.001 -147c2 -1.33301 3 -4.33301 3 -9l-140 -187c-0.666992 -1.33301 -2.66699 -2 -6 -2
c-4.66699 0 -12 1.66699 -22 5c-47.333 22 -106.333 68.667 -177 140v1l-123 -165c-0.666992 -1.33301 -2.66699 -2 -6 -2c-4.66699 0 -12 1.66699 -22 5c-47.333 22 -106.333 68.333 -177 139zM352.997 1028l0.000976562 11l158 211h8c56 -60.667 126 -115 210 -163
c2.66699 -2.66699 4 -5.66699 4 -9l-153 -207c-2 -0.666992 -4.66699 -1 -8 -1c-4.66699 0 -12.334 2 -23.001 6c-52.667 24 -118 74.667 -196 152z" />
    <glyph glyph-name="uniFC73" unicode="&#xfe98;&#xfee6;" horiz-adv-x="2314" arabic-form="final" 
d="M2339 0c-137.333 -4 -234.335 6.66797 -291.002 32.001c-95.333 50.667 -163.333 141.334 -204 272.001c-20 97.333 -26.667 205.666 -20 324.999c-9.33301 2 -10.333 0 -3 -6c-6 -48.667 -27.833 -97 -65.5 -145s-90.167 -77.333 -157.5 -88s-122.333 -18 -165 -22
l-9 -12c1.33301 -110 -2.66699 -187.333 -12 -232c-16 -86.667 -44.333 -163.334 -85 -230.001c-88.667 -168.667 -244 -293.667 -466 -375c-71.333 -17.333 -136 -26 -194 -26c-208 16.667 -371.333 97.667 -490 243c-101.333 122.667 -151.666 272 -150.999 448
c6 211.333 83.667 375.333 233 492c6 8 13 11 21 9c9.33301 -14 2 -38 -22 -72s-38 -59.667 -42 -77c-46.667 -64.667 -74.334 -145 -83.001 -241c0 -78 16.667 -147 50 -207c42.667 -114 165.667 -205.333 369 -274c38.667 -7.33301 77 -11 115 -11
c205.333 0 389 62.667 551 188c74.667 82.667 112 156 112 220c0 14.667 -2 28 -6 40c-18 63.333 -64.667 154.333 -140 273c-11.333 69.333 -12.166 124 -2.49902 164s22.167 74.333 37.5 103c61.333 -88.667 157.333 -134.667 288 -138c30 0 66.667 2 110 6
c92 13.333 153.333 57.333 184 132c-25.333 166 -9.66602 281 47.001 345c20 -30.667 32 -81 36 -151c2.66699 -55.333 5 -110.333 7 -165c4 -62 19.333 -146.833 46 -254.5s71.667 -183 135 -226s152.333 -64.5 267 -64.5v-275zM1500 1244l-0.00195312 9.99805
c33.333 46.667 81.333 110.334 144 191.001h7c12.667 -14 48.334 -42.667 107.001 -86l85 -63c32 44.667 75 101.334 129 170.001h7c50.667 -54 114.334 -103 191.001 -147c2 -1.33301 3 -4.33301 3 -9l-140 -187c-0.666992 -1.33301 -2.66699 -2 -6 -2
c-4.66699 0 -12 1.66699 -22 5c-47.333 22 -106.333 68.667 -177 140v1l-123 -165c-0.666992 -1.33301 -2.66699 -2 -6 -2c-4.66699 0 -12 1.66699 -22 5c-47.333 22 -106.333 68.333 -177 139zM564.996 340.999l0.000976562 11l158 211h8c56 -60.667 126 -115 210 -163
c2.66699 -2.66699 4 -5.66699 4 -9l-153 -207c-2 -0.666992 -4.66699 -1 -8 -1c-4.66699 0 -12.334 2 -23.001 6c-52.667 24 -118 74.667 -196 152z" />
    <glyph glyph-name="uniFC74" unicode="&#xfe98;&#xfef0;" horiz-adv-x="1838" arabic-form="final" 
d="M274 343c12 14 22.001 20.998 30.001 20.998c9.33301 0 15 -9 17 -27c-26 -62 -62 -133.833 -108 -215.5s-67.667 -151.167 -65 -208.5c0 -167.333 70.667 -296.333 212 -387c82 -53.333 185.333 -80 310 -80c258 0 454.667 94.333 590 283l6 32
c-10 16 -34.333 24 -73 24c-37.333 -0.666992 -87.666 2.33301 -150.999 9c-100.667 0.666992 -158 33.667 -172 99c-8 44.667 -12 89.667 -12 135c6.66699 204.667 94.334 385.667 263.001 543c131.333 94 249.666 143.667 354.999 149
c41.333 3.33301 73.166 -1.83398 95.499 -15.501s35.5 -27.5 39.5 -41.5c8 -32.667 6.33301 -90.667 -5 -174c-8.66699 -74 3 -129.5 35 -166.5s107 -52.833 225 -47.5v-278c-146.667 4.66699 -242 37.334 -286 98.001s-65.833 128.5 -65.5 203.5s-6.5 127.5 -20.5 157.5
c-12 4.66699 -26.667 7 -44 7c-16 0 -53 -6.16699 -111 -18.5s-132 -42.166 -222 -89.499c-49.333 -24.667 -95.666 -69.667 -138.999 -135c-8 -44.667 -1 -79.667 21 -105c36.667 -18 91 -29 163 -33c88 -8.66699 144.667 -16 170 -22c44.667 -12 67 -53.667 67 -125
c0 -88 -31 -187.333 -93 -298c-50.667 -99.333 -111 -182 -181 -248c-78 -81.333 -166 -142.333 -264 -183c-76 -28 -153.667 -42 -233 -42c-126.667 0 -240.834 36.333 -342.501 109s-170.834 172.334 -207.501 299.001c-35.333 113.333 -46 229.333 -32 348
c22.667 85.333 46.5 153 71.5 203s77.167 123.333 156.5 220zM1161 958.998l-0.00195312 9.99805c33.333 46.667 81.333 110.334 144 191.001h7c12.667 -14 48.334 -42.667 107.001 -86l85 -63c32 44.667 75 101.334 129 170.001h7c50.667 -54 114.334 -103 191.001 -147
c2 -1.33301 3 -4.33301 3 -9l-140 -187c-0.666992 -1.33301 -2.66699 -2 -6 -2c-4.66699 0 -12 1.66699 -22 5c-47.333 22 -106.333 68.667 -177 140v1l-123 -165c-0.666992 -1.33301 -2.66699 -2 -6 -2c-4.66699 0 -12 1.66699 -22 5c-47.333 22 -106.333 68.333 -177 139z
" />
    <glyph glyph-name="uniFC76" unicode="&#xfe9c;&#xfeae;" horiz-adv-x="1726" arabic-form="final" 
d="M1743 -1c-125.333 -3.33301 -238.001 26.667 -338.001 90c-64 50 -113 123 -147 219c-8.66699 26 -29 114 -61 264c-23.333 -57.333 -43 -100.333 -59 -129c-28.667 -49.333 -77 -87.333 -145 -114c-28 -12 -65.667 -20 -113 -24c-38.667 -2 -67.667 -4 -87 -6
c-6 -97.333 -12 -163 -18 -197c-12.667 -72 -34 -139 -64 -201c-76 -92 -175.667 -151 -299 -177c-110 -4 -221.333 -13 -334 -27c-33.333 0 -51 7 -53 21c33.333 27.333 83 56 149 86c74.667 34.667 125.667 60.667 153 78l214 124c84 53.333 138 112 162 176
c5.33301 46.667 -9.66699 100.667 -45 162c-52.667 90.667 -81 141 -85 151c-16 39.333 -27 80.333 -33 123c-3.33301 53.333 9.66699 100.333 39 141c20 -38.667 36.333 -65 49 -79c22 -29.333 47.667 -49 77 -59c60.667 -16.667 120 -25 178 -25
c119.333 0 211.333 37 276 111c-4 26.667 -6 55 -6 85c-31.333 95.333 -17.666 200 41.001 314h24l24 -249c10.667 -96 26 -177.667 46 -245c47.333 -162 136.333 -263.333 267 -304c60 -19.333 122.667 -30 188 -32v-277zM963.999 1548v9.99902
c33.333 46.667 81.333 110.334 144 191.001h7c50 -54.667 113.667 -103.667 191 -147c1.33301 -2 2 -5 2 -9l-139 -188c-1.33301 -0.666992 -3.33301 -1 -6 -1c-4.66699 0 -11.667 1.66699 -21 5c-48 22 -107.333 68.333 -178 139zM826.999 1210l-0.00195312 9.99805
c33.333 46.667 81.333 110.334 144 191.001h7c12.667 -14 48.334 -42.667 107.001 -86l85 -63c32 44.667 75 101.334 129 170.001h7c50.667 -54 114.334 -103 191.001 -147c2 -1.33301 3 -4.33301 3 -9l-140 -187c-0.666992 -1.33301 -2.66699 -2 -6 -2
c-4.66699 0 -12 1.66699 -22 5c-47.333 22 -106.333 68.667 -177 140v1l-123 -165c-0.666992 -1.33301 -2.66699 -2 -6 -2c-4.66699 0 -12 1.66699 -22 5c-47.333 22 -106.333 68.333 -177 139z" />
    <glyph glyph-name="uniFC77" unicode="&#xfe9c;&#xfeb0;" horiz-adv-x="1729" arabic-form="final" 
d="M1743 -1c-125.333 -3.33301 -238.001 26.667 -338.001 90c-64 50 -113 123 -147 219c-8.66699 26 -29 114 -61 264c-23.333 -57.333 -43 -100.333 -59 -129c-28.667 -49.333 -77 -87.333 -145 -114c-28 -12 -65.667 -20 -113 -24c-38.667 -2 -67.667 -4 -87 -6
c-6 -97.333 -12 -163 -18 -197c-12.667 -72 -34 -139 -64 -201c-76 -92 -175.667 -151 -299 -177c-110 -4 -221.333 -13 -334 -27c-33.333 0 -51 7 -53 21c33.333 27.333 83 56 149 86c74.667 34.667 125.667 60.667 153 78l214 124c84 53.333 138 112 162 176
c5.33301 46.667 -9.66699 100.667 -45 162c-52.667 90.667 -81 141 -85 151c-16 39.333 -27 80.333 -33 123c-3.33301 53.333 9.66699 100.333 39 141c20 -38.667 36.333 -65 49 -79c22 -29.333 47.667 -49 77 -59c60.667 -16.667 120 -25 178 -25
c119.333 0 211.333 37 276 111c-4 26.667 -6 55 -6 85c-31.333 95.333 -17.666 200 41.001 314h24l24 -249c10.667 -96 26 -177.667 46 -245c47.333 -162 136.333 -263.333 267 -304c60 -19.333 122.667 -30 188 -32v-277zM969.999 1581v9.99902
c33.333 46.667 81.333 110.334 144 191.001h7c50 -54.667 113.667 -103.667 191 -147c1.33301 -2 2 -5 2 -9l-139 -188c-1.33301 -0.666992 -3.33301 -1 -6 -1c-4.66699 0 -11.667 1.66699 -21 5c-48 22 -107.333 68.333 -178 139zM832.999 1243l-0.00195312 9.99805
c33.333 46.667 81.333 110.334 144 191.001h7c12.667 -14 48.334 -42.667 107.001 -86l85 -63c32 44.667 75 101.334 129 170.001h7c50.667 -54 114.334 -103 191.001 -147c2 -1.33301 3 -4.33301 3 -9l-140 -187c-0.666992 -1.33301 -2.66699 -2 -6 -2
c-4.66699 0 -12 1.66699 -22 5c-47.333 22 -106.333 68.667 -177 140v1l-123 -165c-0.666992 -1.33301 -2.66699 -2 -6 -2c-4.66699 0 -12 1.66699 -22 5c-47.333 22 -106.333 68.333 -177 139zM369.997 1024l0.000976562 11l158 211h8c56 -60.667 126 -115 210 -163
c2.66699 -2.66699 4 -5.66699 4 -9l-153 -207c-2 -0.666992 -4.66699 -1 -8 -1c-4.66699 0 -12.334 2 -23.001 6c-52.667 24 -118 74.667 -196 152z" />
    <glyph glyph-name="uniFC79" unicode="&#xfe9c;&#xfee6;" horiz-adv-x="2314" arabic-form="final" 
d="M2339 0c-137.333 -4 -234.335 6.66797 -291.002 32.001c-95.333 50.667 -163.333 141.334 -204 272.001c-20 97.333 -26.667 205.666 -20 324.999c-9.33301 2 -10.333 0 -3 -6c-6 -48.667 -27.833 -97 -65.5 -145s-90.167 -77.333 -157.5 -88s-122.333 -18 -165 -22
l-9 -12c1.33301 -110 -2.66699 -187.333 -12 -232c-16 -86.667 -44.333 -163.334 -85 -230.001c-88.667 -168.667 -244 -293.667 -466 -375c-71.333 -17.333 -136 -26 -194 -26c-208 16.667 -371.333 97.667 -490 243c-101.333 122.667 -151.666 272 -150.999 448
c6 211.333 83.667 375.333 233 492c6 8 13 11 21 9c9.33301 -14 2 -38 -22 -72s-38 -59.667 -42 -77c-46.667 -64.667 -74.334 -145 -83.001 -241c0 -78 16.667 -147 50 -207c42.667 -114 165.667 -205.333 369 -274c38.667 -7.33301 77 -11 115 -11
c205.333 0 389 62.667 551 188c74.667 82.667 112 156 112 220c0 14.667 -2 28 -6 40c-18 63.333 -64.667 154.333 -140 273c-11.333 69.333 -12.166 124 -2.49902 164s22.167 74.333 37.5 103c61.333 -88.667 157.333 -134.667 288 -138c30 0 66.667 2 110 6
c92 13.333 153.333 57.333 184 132c-25.333 166 -9.66602 281 47.001 345c20 -30.667 32 -81 36 -151c2.66699 -55.333 5 -110.333 7 -165c4 -62 19.333 -146.833 46 -254.5s71.667 -183 135 -226s152.333 -64.5 267 -64.5v-275zM1642 1543v9.99902
c33.333 46.667 81.333 110.334 144 191.001h7c50 -54.667 113.667 -103.667 191 -147c1.33301 -2 2 -5 2 -9l-139 -188c-1.33301 -0.666992 -3.33301 -1 -6 -1c-4.66699 0 -11.667 1.66699 -21 5c-48 22 -107.333 68.333 -178 139zM1505 1205l-0.00195312 9.99805
c33.333 46.667 81.333 110.334 144 191.001h7c12.667 -14 48.334 -42.667 107.001 -86l85 -63c32 44.667 75 101.334 129 170.001h7c50.667 -54 114.334 -103 191.001 -147c2 -1.33301 3 -4.33301 3 -9l-140 -187c-0.666992 -1.33301 -2.66699 -2 -6 -2
c-4.66699 0 -12 1.66699 -22 5c-47.333 22 -106.333 68.667 -177 140v1l-123 -165c-0.666992 -1.33301 -2.66699 -2 -6 -2c-4.66699 0 -12 1.66699 -22 5c-47.333 22 -106.333 68.333 -177 139zM563.996 346.998l0.000976562 11l158 211h8c56 -60.667 126 -115 210 -163
c2.66699 -2.66699 4 -5.66699 4 -9l-153 -207c-2 -0.666992 -4.66699 -1 -8 -1c-4.66699 0 -12.334 2 -23.001 6c-52.667 24 -118 74.667 -196 152z" />
    <glyph glyph-name="uniFC7A" unicode="&#xfe9c;&#xfef0;" horiz-adv-x="1831" arabic-form="final" 
d="M274 343c12 14 22.001 20.998 30.001 20.998c9.33301 0 15 -9 17 -27c-26 -62 -62 -133.833 -108 -215.5s-67.667 -151.167 -65 -208.5c0 -167.333 70.667 -296.333 212 -387c82 -53.333 185.333 -80 310 -80c258 0 454.667 94.333 590 283l6 32
c-10 16 -34.333 24 -73 24c-37.333 -0.666992 -87.666 2.33301 -150.999 9c-100.667 0.666992 -158 33.667 -172 99c-8 44.667 -12 89.667 -12 135c6.66699 204.667 94.334 385.667 263.001 543c131.333 94 249.666 143.667 354.999 149
c41.333 3.33301 73.166 -1.83398 95.499 -15.501s35.5 -27.5 39.5 -41.5c8 -32.667 6.33301 -90.667 -5 -174c-8.66699 -74 3 -129.5 35 -166.5s107 -52.833 225 -47.5v-278c-146.667 4.66699 -242 37.334 -286 98.001s-65.833 128.5 -65.5 203.5s-6.5 127.5 -20.5 157.5
c-12 4.66699 -26.667 7 -44 7c-16 0 -53 -6.16699 -111 -18.5s-132 -42.166 -222 -89.499c-49.333 -24.667 -95.666 -69.667 -138.999 -135c-8 -44.667 -1 -79.667 21 -105c36.667 -18 91 -29 163 -33c88 -8.66699 144.667 -16 170 -22c44.667 -12 67 -53.667 67 -125
c0 -88 -31 -187.333 -93 -298c-50.667 -99.333 -111 -182 -181 -248c-78 -81.333 -166 -142.333 -264 -183c-76 -28 -153.667 -42 -233 -42c-126.667 0 -240.834 36.333 -342.501 109s-170.834 172.334 -207.501 299.001c-35.333 113.333 -46 229.333 -32 348
c22.667 85.333 46.5 153 71.5 203s77.167 123.333 156.5 220zM1311 1245v9.99902c33.333 46.667 81.333 110.334 144 191.001h7c50 -54.667 113.667 -103.667 191 -147c1.33301 -2 2 -5 2 -9l-139 -188c-1.33301 -0.666992 -3.33301 -1 -6 -1
c-4.66699 0 -11.667 1.66699 -21 5c-48 22 -107.333 68.333 -178 139zM1174 906.997l-0.00195312 9.99805c33.333 46.667 81.333 110.334 144 191.001h7c12.667 -14 48.334 -42.667 107.001 -86l85 -63c32 44.667 75 101.334 129 170.001h7
c50.667 -54 114.334 -103 191.001 -147c2 -1.33301 3 -4.33301 3 -9l-140 -187c-0.666992 -1.33301 -2.66699 -2 -6 -2c-4.66699 0 -12 1.66699 -22 5c-47.333 22 -106.333 68.667 -177 140v1l-123 -165c-0.666992 -1.33301 -2.66699 -2 -6 -2c-4.66699 0 -12 1.66699 -22 5
c-47.333 22 -106.333 68.333 -177 139z" />
    <glyph glyph-name="uniFC80" unicode="&#xfb90;&#xfe8e;" horiz-adv-x="1617" arabic-form="final" 
d="M97.5 1063.5c4.33301 147 6.49805 239.166 6.49805 276.499c0 238.667 14.5 397.5 43.5 476.5s58.167 142.167 87.5 189.5l21 -18c0 -47.333 3 -162.333 9 -345c2 -235.333 2 -463 0 -683c6 -4 11 -6 15 -6c8.66699 0 18.5 5 29.5 15s20.5 16 28.5 18l1035 707
c5.33301 -16 -17.834 -80.833 -69.501 -194.5s-88.5 -200.5 -110.5 -260.5c-12.667 0 -22 4.66699 -28 14l6 73c-76 -26.667 -319.667 -180 -731 -460l15 -17c373.333 -12 658 -138 854 -378c77.333 -107.333 189.333 -172.333 336 -195v-279
c-163.333 -8 -313 67.667 -449 227c-2 4 -15.333 18 -40 42c-6.66699 -29.333 -25.667 -73.166 -57 -131.499s-96.166 -131.833 -194.499 -220.5s-200.166 -133 -305.499 -133c-34 0 -77.333 2.33301 -130 7c-195.333 33.333 -307.166 217.5 -335.499 552.5
s-40.333 576 -36 723zM276.998 560.999c2 -111.333 35 -219.667 99 -325c55.333 -94.667 163 -145 323 -151c183.333 38 299.333 113 348 225c-4 42 -18 71 -42 87c-185.333 117.333 -425 175 -719 173z" />
    <glyph glyph-name="uniFC81" unicode="&#xfb91;&#xfede;" horiz-adv-x="3046" arabic-form="final" 
d="M3062 -1c-178.667 7.33301 -313.664 52.998 -404.997 136.998c-156 134.667 -243 207 -261 217h-12c0 -2 -19.333 -60 -58 -174c-25.333 -72 -60 -137.5 -104 -196.5s-110.5 -111.5 -199.5 -157.5s-182.833 -64 -281.5 -54c-144 10.667 -249 98.334 -315 263.001
c-13.333 -32 -31 -70.667 -53 -116c-8 -10 -16.333 -24.333 -25 -43c-164 -229.333 -371.667 -344 -623 -344c-60 0 -118.333 8 -175 24c-158 21.333 -295.667 108 -413 260c-20.667 33.333 -39 70.333 -55 111c-25.333 56 -39 102.333 -41 139
c-31.333 296 50.334 517 245.001 663c8 8.66699 19.167 20.167 33.5 34.5s25.666 22 33.999 23s15.166 -1.66699 20.499 -8s6.16602 -16.166 2.49902 -29.499s-16.5 -32 -38.5 -56c-30.667 -30.667 -48 -49 -52 -55c-94 -119.333 -138.333 -232 -133 -338
c-5.33301 -116.667 43 -221 145 -313c96 -88 202.333 -136 319 -144c57.333 -12 114 -18 170 -18c236.667 0 415 85.333 535 256c23.333 60 35 132 35 216c0 38 -4 94.5 -12 169.5s-13 130.167 -15 165.5c-2.66699 66.667 -14.334 182 -35.001 346
c-15.333 148 -23 265 -23 351c0 45.333 6.33301 90.5 19 135.5s30.667 119.833 54 224.5l28 2l62 -561c-2 -25.333 -1 -60.333 3 -105c8 -57.333 12 -94.333 12 -111l9 -9c2 0 16.333 24.333 43 73c116 99.333 282 215.333 498 348c247.333 151.333 417 261 509 329
c8.66699 12 42.667 38.333 102 79h3c0 -24.667 -11 -54 -33 -88c-29.333 -50 -45 -80 -47 -90c-32.667 -33.333 -63.667 -77.333 -93 -132l-67 -141c-16 2 -23 13.167 -21 33.5s-2 32.5 -12 36.5l-624 -405c-27.333 -14.667 -62.333 -41.667 -105 -81l13 -9
c157.333 4.66699 299.333 -8.66602 426 -39.999c37.333 -8 91 -26.333 161 -55c40.667 -8 92.334 -34 155 -78c62.667 -44 110 -72.667 142 -86c62 -42.667 137 -105.834 225 -189.501s197 -128.167 327 -133.5zM2277 399.998c-10.667 5.33301 -23.333 17.667 -38 37
c-43.333 30 -118 60.667 -224 92c-94 28.667 -267 39 -519 31l-16 -9c0 -174.667 31 -297.667 93 -369c46.667 -80 135.667 -120 267 -120c34.667 0 78.667 4 132 12c182 47.333 283.667 156 305 326z" />
    <glyph glyph-name="uniFC82" unicode="&#xfedc;&#xfee2;" horiz-adv-x="2802" arabic-form="final" 
d="M2815 -2c-174 -4 -323.334 43.666 -448.001 142.999c-95.333 71.333 -209.333 205.333 -342 402c-16 -28.667 -32.667 -79.667 -50 -153c-50.667 -206.667 -177 -310 -379 -310c-70 0 -141 14 -213 42c-16 10.667 -40.667 3.66699 -74 -21l-166 -165
c-65.333 -52.667 -134 -77 -206 -73c-136.667 8 -233.667 66.667 -291 176l-53 -93.5c-18.667 -33 -40 -60.5 -64 -82.5c-104.667 -33.333 -257 -76.333 -457 -129c-31.333 -6 -47 -4 -47 6c0 6 8 15 24 27c207.333 150 393 266.333 557 349l67 274
c27.333 110 68.333 194 123 252c47.333 47.333 115 69 203 65c38.667 0 83.834 -15.5 135.501 -46.5s86.5 -63.167 104.5 -96.5c30.667 -28 61 -57.333 91 -88c41.333 -37.333 80.5 -65.166 117.5 -83.499s87.5 -27.5 151.5 -27.5c84 0 163.333 15.333 238 46
c29.333 16 66.333 46.667 111 92c-8 92.667 -68.167 217.834 -180.5 375.501s-180.833 281.5 -205.5 371.5c-20 172 17.667 288.333 113 349c549.333 363.333 867 585 953 665h15c-13.333 -98.667 -64.666 -221 -154 -367c-11.333 -24 -27.333 -73 -48 -147
c-6 18 -13 36.667 -21 56s-10 37.666 -6 54.999c-27.333 -15.333 -67.333 -36 -120 -62c-47.333 -34.667 -149 -100 -305 -196l-323 -206c12 -67.333 66 -168.333 162 -303l209 -284c242 -354 481 -532 717 -534c20 -0.666992 39.333 -0.666992 58 0zM1051 152.999
c78 0 143.667 17.667 197 53l-95 94c-38.667 41.333 -74.667 69 -108 83c-18 18.667 -43 29 -75 31l-94 6c-61.333 -16 -105.333 -40.333 -132 -73c10 -49.333 59.333 -100.333 148 -153c43.333 -27.333 96.333 -41 159 -41z" />
    <glyph glyph-name="uniFC83" unicode="&#xfb91;&#xfef0;" horiz-adv-x="1922" arabic-form="final" 
d="M1933 1c-68.667 -12.667 -164.665 18.1699 -287.998 92.5029s-214 163.166 -272 266.499l-15 12c-16 -43.333 -52 -104 -108 -182c35.333 -8 72.5 -17.167 111.5 -27.5s67.833 -29.5 86.5 -57.5c14 -39.333 21 -80.333 21 -123c0 -102 -32 -203.667 -96 -305
c-38 -74.667 -112.333 -159 -223 -253c-172 -99.333 -326.667 -149 -464 -149c-108.667 0 -204 24.667 -286 74c-84.667 37.333 -165.667 110.333 -243 219c-62.667 92.667 -93.667 199 -93 319c-10 136 21 258.667 93 368c28.667 48.667 78 120 148 214
c46 61.333 74.333 71.666 85 30.999c-22.667 -38 -82.334 -149.333 -179.001 -334c-18.667 -32.667 -28 -69.667 -28 -111c-6.66699 -76.667 19.666 -166.667 78.999 -270c138.667 -150.667 305.667 -226 501 -226c286.667 36.667 479 125.667 577 267
c-4 18 -44 35.167 -120 51.5s-148.333 38.166 -217 65.499c-9.33301 12 -14 26 -14 42l53 243c42.667 18 84.834 39.333 126.501 64s76.167 52.667 103.5 84c0 48.667 -16.333 100.334 -49 155.001c-48.667 76 -77 126.333 -85 151c-66 90 -118.667 177 -158 261
c-12 31.333 -22 65.333 -30 102c1.33301 151.333 57.333 256.333 168 315l182 102c2 0 133 68.667 393 206c158 82 284 162 378 240c4 -43.333 -3.33301 -100.333 -22 -171c-46.667 -62 -84.334 -98.667 -113.001 -110c-22 -28 -44.333 -58.5 -67 -91.5s-33 -62.5 -31 -88.5
l-31 -16c-10 6.66699 -11 31.667 -3 75c0 4 2.5 11 7.5 21s6.5 18 4.5 24l-698 -378c-20 -12 -41.333 -36.667 -64 -74l325 -457c189.333 -234.667 374 -354.334 554 -359.001v-282z" />
    <glyph glyph-name="uniFC84" unicode="&#xfedc;&#xfef2;" horiz-adv-x="1908" arabic-form="final" 
d="M1933 1c-68.667 -12.667 -164.665 18.1699 -287.998 92.5029s-214 163.166 -272 266.499l-15 12c-16 -43.333 -52 -104 -108 -182c35.333 -8 72.5 -17.167 111.5 -27.5s67.833 -29.5 86.5 -57.5c14 -39.333 21 -80.333 21 -123c0 -102 -32 -203.667 -96 -305
c-38 -74.667 -112.333 -159 -223 -253c-172 -99.333 -326.667 -149 -464 -149c-108.667 0 -204 24.667 -286 74c-84.667 37.333 -165.667 110.333 -243 219c-62.667 92.667 -93.667 199 -93 319c-10 136 21 258.667 93 368c28.667 48.667 78 120 148 214
c46 61.333 74.333 71.666 85 30.999c-22.667 -38 -82.334 -149.333 -179.001 -334c-18.667 -32.667 -28 -69.667 -28 -111c-6.66699 -76.667 19.666 -166.667 78.999 -270c138.667 -150.667 305.667 -226 501 -226c286.667 36.667 479 125.667 577 267
c-4 18 -44 35.167 -120 51.5s-148.333 38.166 -217 65.499c-9.33301 12 -14 26 -14 42l53 243c42.667 18 84.834 39.333 126.501 64s76.167 52.667 103.5 84c0 48.667 -16.333 100.334 -49 155.001c-48.667 76 -77 126.333 -85 151c-66 90 -118.667 177 -158 261
c-12 31.333 -22 65.333 -30 102c1.33301 151.333 57.333 256.333 168 315l182 102c2 0 133 68.667 393 206c158 82 284 162 378 240c4 -43.333 -3.33301 -100.333 -22 -171c-46.667 -62 -84.334 -98.667 -113.001 -110c-22 -28 -44.333 -58.5 -67 -91.5s-33 -62.5 -31 -88.5
l-31 -16c-10 6.66699 -11 31.667 -3 75c0 4 2.5 11 7.5 21s6.5 18 4.5 24l-698 -378c-20 -12 -41.333 -36.667 -64 -74l325 -457c189.333 -234.667 374 -354.334 554 -359.001v-282z" />
    <glyph glyph-name="uniFC86" unicode="&#xfee0;&#xfef0;" horiz-adv-x="1728" arabic-form="final" 
d="M1750 -2c-174 16.667 -297.333 76.668 -370 180.001c-14 -6 -23.333 -15.333 -28 -28s-11 -27.834 -19 -45.501s-16 -43.834 -24 -78.501c10 -8 50 -22 120 -42c51.333 -14 83 -39.667 95 -77c6 -38.667 5.5 -85.834 -1.5 -141.501s-21.5 -106.834 -43.5 -153.501
c-54 -117.333 -125.667 -216.666 -215 -297.999c-50 -51.333 -120 -101.666 -210 -150.999c-116.667 -68 -239.667 -102 -369 -102c-128.667 0 -244 33 -346 99c-109.333 70 -190.333 167.667 -243 293c-46 90 -69 182 -69 276c0 72 9.33301 141.333 28 208
c40.667 121.333 100 225 178 311l112 91c18 4 27 0 27 -12c0 -12.667 -8 -32 -24 -58c-146 -156 -213.667 -306.667 -203 -452c8 -112 56 -207 144 -285c125.333 -110.667 278 -166 458 -166c164 0 321.333 44 472 132c72 40.667 129.667 90 173 148
c-39.333 43.333 -162.333 78 -369 104c-4 18.667 -6 39 -6 61c0 51.333 14.333 119 43 203c4 4 33.667 21.333 89 52c32 22 56.667 47.667 74 77c40 84 60 142.333 60 175c0 20 -1.66699 39.667 -5 59c-20.667 132.667 -49.667 337 -87 613c0 49.333 5 129.333 15 240
c7.33301 47.333 13 78 17 92c14.667 34.667 29 61.667 43 81c14.667 -17.333 26 -61.333 34 -132c4 -27.333 11 -85 21 -173c6 -60 22.667 -185 50 -375c12 -94 44.5 -185.167 97.5 -273.5s146.833 -146.166 281.5 -173.499v-278z" />
    <glyph glyph-name="uniFC87" unicode="&#xfee0;&#xfef2;" horiz-adv-x="1763" arabic-form="final" 
d="M1750 -2c-174 16.667 -297.333 76.668 -370 180.001c-14 -6 -23.333 -15.333 -28 -28s-11 -27.834 -19 -45.501s-16 -43.834 -24 -78.501c10 -8 50 -22 120 -42c51.333 -14 83 -39.667 95 -77c6 -38.667 5.5 -85.834 -1.5 -141.501s-21.5 -106.834 -43.5 -153.501
c-54 -117.333 -125.667 -216.666 -215 -297.999c-50 -51.333 -120 -101.666 -210 -150.999c-116.667 -68 -239.667 -102 -369 -102c-128.667 0 -244 33 -346 99c-109.333 70 -190.333 167.667 -243 293c-46 90 -69 182 -69 276c0 72 9.33301 141.333 28 208
c40.667 121.333 100 225 178 311l112 91c18 4 27 0 27 -12c0 -12.667 -8 -32 -24 -58c-146 -156 -213.667 -306.667 -203 -452c8 -112 56 -207 144 -285c125.333 -110.667 278 -166 458 -166c164 0 321.333 44 472 132c72 40.667 129.667 90 173 148
c-39.333 43.333 -162.333 78 -369 104c-4 18.667 -6 39 -6 61c0 51.333 14.333 119 43 203c4 4 33.667 21.333 89 52c32 22 56.667 47.667 74 77c40 84 60 142.333 60 175c0 20 -1.66699 39.667 -5 59c-20.667 132.667 -49.667 337 -87 613c0 49.333 5 129.333 15 240
c7.33301 47.333 13 78 17 92c14.667 34.667 29 61.667 43 81c14.667 -17.333 26 -61.333 34 -132c4 -27.333 11 -85 21 -173c6 -60 22.667 -185 50 -375c12 -94 44.5 -185.167 97.5 -273.5s146.833 -146.166 281.5 -173.499v-278z" />
    <glyph glyph-name="uniFC8A" unicode="&#xfee8;&#xfeae;" horiz-adv-x="1726" arabic-form="final" 
d="M1743 -1c-125.333 -3.33301 -238.001 26.667 -338.001 90c-64 50 -113 123 -147 219c-8.66699 26 -29 114 -61 264c-23.333 -57.333 -43 -100.333 -59 -129c-28.667 -49.333 -77 -87.333 -145 -114c-28 -12 -65.667 -20 -113 -24c-38.667 -2 -67.667 -4 -87 -6
c-6 -97.333 -12 -163 -18 -197c-12.667 -72 -34 -139 -64 -201c-76 -92 -175.667 -151 -299 -177c-110 -4 -221.333 -13 -334 -27c-33.333 0 -51 7 -53 21c33.333 27.333 83 56 149 86c74.667 34.667 125.667 60.667 153 78l214 124c84 53.333 138 112 162 176
c5.33301 46.667 -9.66699 100.667 -45 162c-52.667 90.667 -81 141 -85 151c-16 39.333 -27 80.333 -33 123c-3.33301 53.333 9.66699 100.333 39 141c20 -38.667 36.333 -65 49 -79c22 -29.333 47.667 -49 77 -59c60.667 -16.667 120 -25 178 -25
c119.333 0 211.333 37 276 111c-4 26.667 -6 55 -6 85c-31.333 95.333 -17.666 200 41.001 314h24l24 -249c10.667 -96 26 -177.667 46 -245c47.333 -162 136.333 -263.333 267 -304c60 -19.333 122.667 -30 188 -32v-277zM1005 1360l0.000976562 11l158 211h8
c56 -60.667 126 -115 210 -163c2.66699 -2.66699 4 -5.66699 4 -9l-153 -207c-2 -0.666992 -4.66699 -1 -8 -1c-4.66699 0 -12.334 2 -23.001 6c-52.667 24 -118 74.667 -196 152z" />
    <glyph glyph-name="uniFC8B" unicode="&#xfee8;&#xfeb0;" horiz-adv-x="1729" arabic-form="final" 
d="M1743 -1c-125.333 -3.33301 -238.001 26.667 -338.001 90c-64 50 -113 123 -147 219c-8.66699 26 -29 114 -61 264c-23.333 -57.333 -43 -100.333 -59 -129c-28.667 -49.333 -77 -87.333 -145 -114c-28 -12 -65.667 -20 -113 -24c-38.667 -2 -67.667 -4 -87 -6
c-6 -97.333 -12 -163 -18 -197c-12.667 -72 -34 -139 -64 -201c-76 -92 -175.667 -151 -299 -177c-110 -4 -221.333 -13 -334 -27c-33.333 0 -51 7 -53 21c33.333 27.333 83 56 149 86c74.667 34.667 125.667 60.667 153 78l214 124c84 53.333 138 112 162 176
c5.33301 46.667 -9.66699 100.667 -45 162c-52.667 90.667 -81 141 -85 151c-16 39.333 -27 80.333 -33 123c-3.33301 53.333 9.66699 100.333 39 141c20 -38.667 36.333 -65 49 -79c22 -29.333 47.667 -49 77 -59c60.667 -16.667 120 -25 178 -25
c119.333 0 211.333 37 276 111c-4 26.667 -6 55 -6 85c-31.333 95.333 -17.666 200 41.001 314h24l24 -249c10.667 -96 26 -177.667 46 -245c47.333 -162 136.333 -263.333 267 -304c60 -19.333 122.667 -30 188 -32v-277zM1015 1362l0.000976562 11l158 211h8
c56 -60.667 126 -115 210 -163c2.66699 -2.66699 4 -5.66699 4 -9l-153 -207c-2 -0.666992 -4.66699 -1 -8 -1c-4.66699 0 -12.334 2 -23.001 6c-52.667 24 -118 74.667 -196 152zM382 1022l0.000976562 11l158 211h8c56 -60.667 126 -115 210 -163
c2.66699 -2.66699 4 -5.66699 4 -9l-153 -207c-2 -0.666992 -4.66699 -1 -8 -1c-4.66699 0 -12.334 2 -23.001 6c-52.667 24 -118 74.667 -196 152z" />
    <glyph glyph-name="uniFC8D" unicode="&#xfee8;&#xfee6;" horiz-adv-x="2314" arabic-form="final" 
d="M2339 0c-137.333 -4 -234.335 6.66797 -291.002 32.001c-95.333 50.667 -163.333 141.334 -204 272.001c-20 97.333 -26.667 205.666 -20 324.999c-9.33301 2 -10.333 0 -3 -6c-6 -48.667 -27.833 -97 -65.5 -145s-90.167 -77.333 -157.5 -88s-122.333 -18 -165 -22
l-9 -12c1.33301 -110 -2.66699 -187.333 -12 -232c-16 -86.667 -44.333 -163.334 -85 -230.001c-88.667 -168.667 -244 -293.667 -466 -375c-71.333 -17.333 -136 -26 -194 -26c-208 16.667 -371.333 97.667 -490 243c-101.333 122.667 -151.666 272 -150.999 448
c6 211.333 83.667 375.333 233 492c6 8 13 11 21 9c9.33301 -14 2 -38 -22 -72s-38 -59.667 -42 -77c-46.667 -64.667 -74.334 -145 -83.001 -241c0 -78 16.667 -147 50 -207c42.667 -114 165.667 -205.333 369 -274c38.667 -7.33301 77 -11 115 -11
c205.333 0 389 62.667 551 188c74.667 82.667 112 156 112 220c0 14.667 -2 28 -6 40c-18 63.333 -64.667 154.333 -140 273c-11.333 69.333 -12.166 124 -2.49902 164s22.167 74.333 37.5 103c61.333 -88.667 157.333 -134.667 288 -138c30 0 66.667 2 110 6
c92 13.333 153.333 57.333 184 132c-25.333 166 -9.66602 281 47.001 345c20 -30.667 32 -81 36 -151c2.66699 -55.333 5 -110.333 7 -165c4 -62 19.333 -146.833 46 -254.5s71.667 -183 135 -226s152.333 -64.5 267 -64.5v-275zM1677 1337l0.000976562 11l158 211h8
c56 -60.667 126 -115 210 -163c2.66699 -2.66699 4 -5.66699 4 -9l-153 -207c-2 -0.666992 -4.66699 -1 -8 -1c-4.66699 0 -12.334 2 -23.001 6c-52.667 24 -118 74.667 -196 152zM561.999 332.001l0.000976562 11l158 211h8c56 -60.667 126 -115 210 -163
c2.66699 -2.66699 4 -5.66699 4 -9l-153 -207c-2 -0.666992 -4.66699 -1 -8 -1c-4.66699 0 -12.334 2 -23.001 6c-52.667 24 -118 74.667 -196 152z" />
    <glyph glyph-name="uniFC8E" unicode="&#xfee8;&#xfef0;" horiz-adv-x="1829" arabic-form="final" 
d="M274 343c12 14 22.001 20.998 30.001 20.998c9.33301 0 15 -9 17 -27c-26 -62 -62 -133.833 -108 -215.5s-67.667 -151.167 -65 -208.5c0 -167.333 70.667 -296.333 212 -387c82 -53.333 185.333 -80 310 -80c258 0 454.667 94.333 590 283l6 32
c-10 16 -34.333 24 -73 24c-37.333 -0.666992 -87.666 2.33301 -150.999 9c-100.667 0.666992 -158 33.667 -172 99c-8 44.667 -12 89.667 -12 135c6.66699 204.667 94.334 385.667 263.001 543c131.333 94 249.666 143.667 354.999 149
c41.333 3.33301 73.166 -1.83398 95.499 -15.501s35.5 -27.5 39.5 -41.5c8 -32.667 6.33301 -90.667 -5 -174c-8.66699 -74 3 -129.5 35 -166.5s107 -52.833 225 -47.5v-278c-146.667 4.66699 -242 37.334 -286 98.001s-65.833 128.5 -65.5 203.5s-6.5 127.5 -20.5 157.5
c-12 4.66699 -26.667 7 -44 7c-16 0 -53 -6.16699 -111 -18.5s-132 -42.166 -222 -89.499c-49.333 -24.667 -95.666 -69.667 -138.999 -135c-8 -44.667 -1 -79.667 21 -105c36.667 -18 91 -29 163 -33c88 -8.66699 144.667 -16 170 -22c44.667 -12 67 -53.667 67 -125
c0 -88 -31 -187.333 -93 -298c-50.667 -99.333 -111 -182 -181 -248c-78 -81.333 -166 -142.333 -264 -183c-76 -28 -153.667 -42 -233 -42c-126.667 0 -240.834 36.333 -342.501 109s-170.834 172.334 -207.501 299.001c-35.333 113.333 -46 229.333 -32 348
c22.667 85.333 46.5 153 71.5 203s77.167 123.333 156.5 220zM1366 980.998l0.000976562 11l158 211h8c56 -60.667 126 -115 210 -163c2.66699 -2.66699 4 -5.66699 4 -9l-153 -207c-2 -0.666992 -4.66699 -1 -8 -1c-4.66699 0 -12.334 2 -23.001 6
c-52.667 24 -118 74.667 -196 152z" />
    <glyph glyph-name="uniFC91" unicode="&#xfbff;&#xfeae;" horiz-adv-x="1728" arabic-form="final" 
d="M1743 -1c-125.333 -3.33301 -238.001 26.667 -338.001 90c-64 50 -113 123 -147 219c-8.66699 26 -29 114 -61 264c-23.333 -57.333 -43 -100.333 -59 -129c-28.667 -49.333 -77 -87.333 -145 -114c-28 -12 -65.667 -20 -113 -24c-38.667 -2 -67.667 -4 -87 -6
c-6 -97.333 -12 -163 -18 -197c-12.667 -72 -34 -139 -64 -201c-76 -92 -175.667 -151 -299 -177c-110 -4 -221.333 -13 -334 -27c-33.333 0 -51 7 -53 21c33.333 27.333 83 56 149 86c74.667 34.667 125.667 60.667 153 78l214 124c84 53.333 138 112 162 176
c5.33301 46.667 -9.66699 100.667 -45 162c-52.667 90.667 -81 141 -85 151c-16 39.333 -27 80.333 -33 123c-3.33301 53.333 9.66699 100.333 39 141c20 -38.667 36.333 -65 49 -79c22 -29.333 47.667 -49 77 -59c60.667 -16.667 120 -25 178 -25
c119.333 0 211.333 37 276 111c-4 26.667 -6 55 -6 85c-31.333 95.333 -17.666 200 41.001 314h24l24 -249c10.667 -96 26 -177.667 46 -245c47.333 -162 136.333 -263.333 267 -304c60 -19.333 122.667 -30 188 -32v-277zM952.999 -264l-0.00195312 9.99805
c33.333 46.667 81.333 110.334 144 191.001h7c12.667 -14 48.334 -42.667 107.001 -86l85 -63c32 44.667 75 101.334 129 170.001h7c50.667 -54 114.334 -103 191.001 -147c2 -1.33301 3 -4.33301 3 -9l-140 -187c-0.666992 -1.33301 -2.66699 -2 -6 -2
c-4.66699 0 -12 1.66699 -22 5c-47.333 22 -106.333 68.667 -177 140v1l-123 -165c-0.666992 -1.33301 -2.66699 -2 -6 -2c-4.66699 0 -12 1.66699 -22 5c-47.333 22 -106.333 68.333 -177 139z" />
    <glyph glyph-name="uniFC92" unicode="&#xfbff;&#xfeb0;" horiz-adv-x="1733" arabic-form="final" 
d="M1743 -1c-125.333 -3.33301 -238.001 26.667 -338.001 90c-64 50 -113 123 -147 219c-8.66699 26 -29 114 -61 264c-23.333 -57.333 -43 -100.333 -59 -129c-28.667 -49.333 -77 -87.333 -145 -114c-28 -12 -65.667 -20 -113 -24c-38.667 -2 -67.667 -4 -87 -6
c-6 -97.333 -12 -163 -18 -197c-12.667 -72 -34 -139 -64 -201c-76 -92 -175.667 -151 -299 -177c-110 -4 -221.333 -13 -334 -27c-33.333 0 -51 7 -53 21c33.333 27.333 83 56 149 86c74.667 34.667 125.667 60.667 153 78l214 124c84 53.333 138 112 162 176
c5.33301 46.667 -9.66699 100.667 -45 162c-52.667 90.667 -81 141 -85 151c-16 39.333 -27 80.333 -33 123c-3.33301 53.333 9.66699 100.333 39 141c20 -38.667 36.333 -65 49 -79c22 -29.333 47.667 -49 77 -59c60.667 -16.667 120 -25 178 -25
c119.333 0 211.333 37 276 111c-4 26.667 -6 55 -6 85c-31.333 95.333 -17.666 200 41.001 314h24l24 -249c10.667 -96 26 -177.667 46 -245c47.333 -162 136.333 -263.333 267 -304c60 -19.333 122.667 -30 188 -32v-277zM945.999 -254l-0.00195312 9.99805
c33.333 46.667 81.333 110.334 144 191.001h7c12.667 -14 48.334 -42.667 107.001 -86l85 -63c32 44.667 75 101.334 129 170.001h7c50.667 -54 114.334 -103 191.001 -147c2 -1.33301 3 -4.33301 3 -9l-140 -187c-0.666992 -1.33301 -2.66699 -2 -6 -2
c-4.66699 0 -12 1.66699 -22 5c-47.333 22 -106.333 68.667 -177 140v1l-123 -165c-0.666992 -1.33301 -2.66699 -2 -6 -2c-4.66699 0 -12 1.66699 -22 5c-47.333 22 -106.333 68.333 -177 139zM380.997 1011l0.000976562 11l158 211h8c56 -60.667 126 -115 210 -163
c2.66699 -2.66699 4 -5.66699 4 -9l-153 -207c-2 -0.666992 -4.66699 -1 -8 -1c-4.66699 0 -12.334 2 -23.001 6c-52.667 24 -118 74.667 -196 152z" />
    <glyph glyph-name="uniFC94" unicode="&#xfbff;&#xfee6;" horiz-adv-x="2314" arabic-form="final" 
d="M2339 0c-137.333 -4 -234.335 6.66797 -291.002 32.001c-95.333 50.667 -163.333 141.334 -204 272.001c-20 97.333 -26.667 205.666 -20 324.999c-9.33301 2 -10.333 0 -3 -6c-6 -48.667 -27.833 -97 -65.5 -145s-90.167 -77.333 -157.5 -88s-122.333 -18 -165 -22
l-9 -12c1.33301 -110 -2.66699 -187.333 -12 -232c-16 -86.667 -44.333 -163.334 -85 -230.001c-88.667 -168.667 -244 -293.667 -466 -375c-71.333 -17.333 -136 -26 -194 -26c-208 16.667 -371.333 97.667 -490 243c-101.333 122.667 -151.666 272 -150.999 448
c6 211.333 83.667 375.333 233 492c6 8 13 11 21 9c9.33301 -14 2 -38 -22 -72s-38 -59.667 -42 -77c-46.667 -64.667 -74.334 -145 -83.001 -241c0 -78 16.667 -147 50 -207c42.667 -114 165.667 -205.333 369 -274c38.667 -7.33301 77 -11 115 -11
c205.333 0 389 62.667 551 188c74.667 82.667 112 156 112 220c0 14.667 -2 28 -6 40c-18 63.333 -64.667 154.333 -140 273c-11.333 69.333 -12.166 124 -2.49902 164s22.167 74.333 37.5 103c61.333 -88.667 157.333 -134.667 288 -138c30 0 66.667 2 110 6
c92 13.333 153.333 57.333 184 132c-25.333 166 -9.66602 281 47.001 345c20 -30.667 32 -81 36 -151c2.66699 -55.333 5 -110.333 7 -165c4 -62 19.333 -146.833 46 -254.5s71.667 -183 135 -226s152.333 -64.5 267 -64.5v-275zM1431 -190.999l-0.00195312 9.99805
c33.333 46.667 81.333 110.334 144 191.001h7c12.667 -14 48.334 -42.667 107.001 -86l85 -63c32 44.667 75 101.334 129 170.001h7c50.667 -54 114.334 -103 191.001 -147c2 -1.33301 3 -4.33301 3 -9l-140 -187c-0.666992 -1.33301 -2.66699 -2 -6 -2
c-4.66699 0 -12 1.66699 -22 5c-47.333 22 -106.333 68.667 -177 140v1l-123 -165c-0.666992 -1.33301 -2.66699 -2 -6 -2c-4.66699 0 -12 1.66699 -22 5c-47.333 22 -106.333 68.333 -177 139zM590.996 344.999l0.000976562 11l158 211h8c56 -60.667 126 -115 210 -163
c2.66699 -2.66699 4 -5.66699 4 -9l-153 -207c-2 -0.666992 -4.66699 -1 -8 -1c-4.66699 0 -12.334 2 -23.001 6c-52.667 24 -118 74.667 -196 152z" />
    <glyph glyph-name="uniFC95" unicode="&#xfbff;&#xfbfd;" horiz-adv-x="1829" arabic-form="final" 
d="M274 343c12 14 22.001 20.998 30.001 20.998c9.33301 0 15 -9 17 -27c-26 -62 -62 -133.833 -108 -215.5s-67.667 -151.167 -65 -208.5c0 -167.333 70.667 -296.333 212 -387c82 -53.333 185.333 -80 310 -80c258 0 454.667 94.333 590 283l6 32
c-10 16 -34.333 24 -73 24c-37.333 -0.666992 -87.666 2.33301 -150.999 9c-100.667 0.666992 -158 33.667 -172 99c-8 44.667 -12 89.667 -12 135c6.66699 204.667 94.334 385.667 263.001 543c131.333 94 249.666 143.667 354.999 149
c41.333 3.33301 73.166 -1.83398 95.499 -15.501s35.5 -27.5 39.5 -41.5c8 -32.667 6.33301 -90.667 -5 -174c-8.66699 -74 3 -129.5 35 -166.5s107 -52.833 225 -47.5v-278c-146.667 4.66699 -242 37.334 -286 98.001s-65.833 128.5 -65.5 203.5s-6.5 127.5 -20.5 157.5
c-12 4.66699 -26.667 7 -44 7c-16 0 -53 -6.16699 -111 -18.5s-132 -42.166 -222 -89.499c-49.333 -24.667 -95.666 -69.667 -138.999 -135c-8 -44.667 -1 -79.667 21 -105c36.667 -18 91 -29 163 -33c88 -8.66699 144.667 -16 170 -22c44.667 -12 67 -53.667 67 -125
c0 -88 -31 -187.333 -93 -298c-50.667 -99.333 -111 -182 -181 -248c-78 -81.333 -166 -142.333 -264 -183c-76 -28 -153.667 -42 -233 -42c-126.667 0 -240.834 36.333 -342.501 109s-170.834 172.334 -207.501 299.001c-35.333 113.333 -46 229.333 -32 348
c22.667 85.333 46.5 153 71.5 203s77.167 123.333 156.5 220zM1362 -448.002l-0.00195312 9.99805c33.333 46.667 81.333 110.334 144 191.001h7c12.667 -14 48.334 -42.667 107.001 -86l85 -63c32 44.667 75 101.334 129 170.001h7c50.667 -54 114.334 -103 191.001 -147
c2 -1.33301 3 -4.33301 3 -9l-140 -187c-0.666992 -1.33301 -2.66699 -2 -6 -2c-4.66699 0 -12 1.66699 -22 5c-47.333 22 -106.333 68.667 -177 140v1l-123 -165c-0.666992 -1.33301 -2.66699 -2 -6 -2c-4.66699 0 -12 1.66699 -22 5c-47.333 22 -106.333 68.333 -177 139z
" />
    <glyph glyph-name="uniFC97" unicode="&#xfe8b;&#xfea0;" horiz-adv-x="1445" arabic-form="initial" 
d="M-5 0c262 15.333 492.002 84 690.002 206c38 4.66699 91 10 159 16c86 9.33301 139 16 159 20c44.667 46.667 77.667 140.667 99 282c-109.333 4 -272.333 21.333 -489 52c-18 8 -55 16 -111 24c-47.333 7.33301 -81 19 -101 35c20 10 77 23.333 171 40
c72 14 124.667 36.667 158 68c24 18 78 76 162 174c64 78 126.333 120 187 126c29.333 -24 54 -59.667 74 -107l46 -123c23.333 -14.667 40 -7.66699 50 21l52 255c-26.667 53.333 -57.667 122 -93 206c-26 30.667 -51.333 43 -76 37l-123.5 -118
c-41 -40 -74.5 -81.667 -100.5 -125c-16.667 -34.667 -49.667 -83.667 -99 -147c-76 -68 -182.333 -119.333 -319 -154c-119.333 -26 -237 -53.667 -353 -83c-66.667 -34.667 -93.667 -86.667 -81 -156c36 -18.667 65 -27 87 -25c41.333 -18 96.333 -36.667 165 -56
c56 -16 112.667 -31 170 -45c24 -2 51.333 -14.333 82 -37c-56.667 -34 -123.334 -62 -200.001 -84s-198.334 -30.333 -365.001 -25v-277zM1349 1640l-274.998 -102.998c-106 -40 -193.667 -82 -263 -126c-7.33301 1.33301 -12 5.66602 -14 12.999
c4 24.667 23.667 50.334 59 77.001l83 56l71 36c-6.66699 6.66699 -14.167 13.5 -22.5 20.5s-14.833 13.5 -19.5 19.5c-24.667 24.667 -37.334 52 -38.001 82c3.33301 21.333 11.333 44.666 24 69.999c20 31.333 31.667 51.666 35 60.999c56.667 97.333 119 145 187 143
c78 -12 126 -44.667 144 -98c6.66699 -6.66699 12.667 -22 18 -46c0 -10 -7 -16.667 -21 -20c-37.333 26.667 -77.333 45 -120 55c-58.667 12.667 -111 5 -157 -23c-3.33301 -4 -6 -8 -8 -12c0 -4.66699 2.33301 -18 7 -40c39.333 -54.667 91.333 -88.334 156 -101.001
c20.667 -6.66699 42.667 -9.33398 66 -8.00098c33.333 12.667 84.666 29.667 153.999 51c0.666992 -3.33301 0.666992 -7.66602 0 -12.999c-1.33301 -9.33301 -6.66602 -24.333 -15.999 -45c-8 -21.333 -13 -32.333 -15 -33
c-12.667 -7.33301 -24.334 -12.666 -35.001 -15.999zM276.004 -236.998l0.000976562 11l158 211h8c56 -60.667 126 -115 210 -163c2.66699 -2.66699 4 -5.66699 4 -9l-153 -207c-2 -0.666992 -4.66699 -1 -8 -1c-4.66699 0 -12.334 2 -23.001 6
c-52.667 24 -118 74.667 -196 152z" />
    <glyph glyph-name="uniFC98" unicode="&#xfe8b;&#xfea4;" horiz-adv-x="1359" arabic-form="initial" 
d="M-5 0c262 15.333 492.002 84 690.002 206c38 4.66699 91 10 159 16c86 9.33301 139 16 159 20c44.667 46.667 77.667 140.667 99 282c-109.333 4 -272.333 21.333 -489 52c-18 8 -55 16 -111 24c-47.333 7.33301 -81 19 -101 35c20 10 77 23.333 171 40
c72 14 124.667 36.667 158 68c24 18 78 76 162 174c64 78 126.333 120 187 126c29.333 -24 54 -59.667 74 -107l46 -123c23.333 -14.667 40 -7.66699 50 21l52 255c-26.667 53.333 -57.667 122 -93 206c-26 30.667 -51.333 43 -76 37l-123.5 -118
c-41 -40 -74.5 -81.667 -100.5 -125c-16.667 -34.667 -49.667 -83.667 -99 -147c-76 -68 -182.333 -119.333 -319 -154c-119.333 -26 -237 -53.667 -353 -83c-66.667 -34.667 -93.667 -86.667 -81 -156c36 -18.667 65 -27 87 -25c41.333 -18 96.333 -36.667 165 -56
c56 -16 112.667 -31 170 -45c24 -2 51.333 -14.333 82 -37c-56.667 -34 -123.334 -62 -200.001 -84s-198.334 -30.333 -365.001 -25v-277zM1263 1609l-274.998 -102.998c-106 -40 -193.667 -82 -263 -126c-7.33301 1.33301 -12 5.66602 -14 12.999
c4 24.667 23.667 50.334 59 77.001l83 56l71 36c-6.66699 6.66699 -14.167 13.5 -22.5 20.5s-14.833 13.5 -19.5 19.5c-24.667 24.667 -37.334 52 -38.001 82c3.33301 21.333 11.333 44.666 24 69.999c20 31.333 31.667 51.666 35 60.999c56.667 97.333 119 145 187 143
c78 -12 126 -44.667 144 -98c6.66699 -6.66699 12.667 -22 18 -46c0 -10 -7 -16.667 -21 -20c-37.333 26.667 -77.333 45 -120 55c-58.667 12.667 -111 5 -157 -23c-3.33301 -4 -6 -8 -8 -12c0 -4.66699 2.33301 -18 7 -40c39.333 -54.667 91.333 -88.334 156 -101.001
c20.667 -6.66699 42.667 -9.33398 66 -8.00098c33.333 12.667 84.666 29.667 153.999 51c0.666992 -3.33301 0.666992 -7.66602 0 -12.999c-1.33301 -9.33301 -6.66602 -24.333 -15.999 -45c-8 -21.333 -13 -32.333 -15 -33
c-12.667 -7.33301 -24.334 -12.666 -35.001 -15.999z" />
    <glyph glyph-name="uniFC99" unicode="&#xfe8b;&#xfea8;" horiz-adv-x="1438" arabic-form="initial" 
d="M-5 0c262 15.333 492.002 84 690.002 206c38 4.66699 91 10 159 16c86 9.33301 139 16 159 20c44.667 46.667 77.667 140.667 99 282c-109.333 4 -272.333 21.333 -489 52c-18 8 -55 16 -111 24c-47.333 7.33301 -81 19 -101 35c20 10 77 23.333 171 40
c72 14 124.667 36.667 158 68c24 18 78 76 162 174c64 78 126.333 120 187 126c29.333 -24 54 -59.667 74 -107l46 -123c23.333 -14.667 40 -7.66699 50 21l52 255c-26.667 53.333 -57.667 122 -93 206c-26 30.667 -51.333 43 -76 37l-123.5 -118
c-41 -40 -74.5 -81.667 -100.5 -125c-16.667 -34.667 -49.667 -83.667 -99 -147c-76 -68 -182.333 -119.333 -319 -154c-119.333 -26 -237 -53.667 -353 -83c-66.667 -34.667 -93.667 -86.667 -81 -156c36 -18.667 65 -27 87 -25c41.333 -18 96.333 -36.667 165 -56
c56 -16 112.667 -31 170 -45c24 -2 51.333 -14.333 82 -37c-56.667 -34 -123.334 -62 -200.001 -84s-198.334 -30.333 -365.001 -25v-277zM1341 1579l-274.998 -102.998c-106 -40 -193.667 -82 -263 -126c-7.33301 1.33301 -12 5.66602 -14 12.999
c4 24.667 23.667 50.334 59 77.001l83 56l71 36c-6.66699 6.66699 -14.167 13.5 -22.5 20.5s-14.833 13.5 -19.5 19.5c-24.667 24.667 -37.334 52 -38.001 82c3.33301 21.333 11.333 44.666 24 69.999c20 31.333 31.667 51.666 35 60.999c56.667 97.333 119 145 187 143
c78 -12 126 -44.667 144 -98c6.66699 -6.66699 12.667 -22 18 -46c0 -10 -7 -16.667 -21 -20c-37.333 26.667 -77.333 45 -120 55c-58.667 12.667 -111 5 -157 -23c-3.33301 -4 -6 -8 -8 -12c0 -4.66699 2.33301 -18 7 -40c39.333 -54.667 91.333 -88.334 156 -101.001
c20.667 -6.66699 42.667 -9.33398 66 -8.00098c33.333 12.667 84.666 29.667 153.999 51c0.666992 -3.33301 0.666992 -7.66602 0 -12.999c-1.33301 -9.33301 -6.66602 -24.333 -15.999 -45c-8 -21.333 -13 -32.333 -15 -33
c-12.667 -7.33301 -24.334 -12.666 -35.001 -15.999zM213.004 1145l0.000976562 11l158 211h8c56 -60.667 126 -115 210 -163c2.66699 -2.66699 4 -5.66699 4 -9l-153 -207c-2 -0.666992 -4.66699 -1 -8 -1c-4.66699 0 -12.334 2 -23.001 6c-52.667 24 -118 74.667 -196 152
z" />
    <glyph glyph-name="uniFC9A" unicode="&#xfe8b;&#xfee4;" horiz-adv-x="1257" arabic-form="initial" 
d="M-5 276c182 -0.666992 323 43 423 131c40.667 183.333 110 342.333 208 477c121.333 164 264 257 428 279c60.667 10 111.667 -5 153 -45c8.66699 -24.667 13 -51.667 13 -81c0 2 -12.333 -74.333 -37 -229c-4 -15.333 -14.667 -30 -32 -44c-26 43.333 -46 70 -60 80
c-30.667 10 -60.667 20.333 -90 31c-72 -4 -180.333 -52.333 -325 -145l-92 -110c-30.667 -42.667 -49 -84.667 -55 -126c14 -6 28 -4 42 6c-4 0 35 8 117 24c66 -18 113 -35.333 141 -52c52 -26 86 -61.667 102 -107c8 -32.667 12 -64.667 12 -96
c0 -66.667 -19.667 -146 -59 -238c-48.667 -47.333 -105.667 -71 -171 -71c-18.667 0 -37 2 -55 6c-101.333 6 -178.333 75.667 -231 209c-16 2 -35.667 -8.66699 -59 -32c-26 -28 -42.333 -43 -49 -45c-63.333 -60 -171.333 -93.333 -324 -100v278zM1169 1427
l-274.998 -102.998c-106 -40 -193.667 -82 -263 -126c-7.33301 1.33301 -12 5.66602 -14 12.999c4 24.667 23.667 50.334 59 77.001l83 56l71 36c-6.66699 6.66699 -14.167 13.5 -22.5 20.5s-14.833 13.5 -19.5 19.5c-24.667 24.667 -37.334 52 -38.001 82
c3.33301 21.333 11.333 44.666 24 69.999c20 31.333 31.667 51.666 35 60.999c56.667 97.333 119 145 187 143c78 -12 126 -44.667 144 -98c6.66699 -6.66699 12.667 -22 18 -46c0 -10 -7 -16.667 -21 -20c-37.333 26.667 -77.333 45 -120 55
c-58.667 12.667 -111 5 -157 -23c-3.33301 -4 -6 -8 -8 -12c0 -4.66699 2.33301 -18 7 -40c39.333 -54.667 91.333 -88.334 156 -101.001c20.667 -6.66699 42.667 -9.33398 66 -8.00098c33.333 12.667 84.666 29.667 153.999 51
c0.666992 -3.33301 0.666992 -7.66602 0 -12.999c-1.33301 -9.33301 -6.66602 -24.333 -15.999 -45c-8 -21.333 -13 -32.333 -15 -33c-12.667 -7.33301 -24.334 -12.666 -35.001 -15.999z" />
    <glyph glyph-name="uniFC9C" unicode="&#xfe91;&#xfea0;" horiz-adv-x="1381" arabic-form="initial" 
d="M-5 0c262 15.333 492.002 84 690.002 206c38 4.66699 91 10 159 16c86 9.33301 139 16 159 20c44.667 46.667 77.667 140.667 99 282c-109.333 4 -272.333 21.333 -489 52c-18 8 -55 16 -111 24c-47.333 7.33301 -81 19 -101 35c20 10 77 23.333 171 40
c72 14 124.667 36.667 158 68c24 18 78 76 162 174c64 78 126.333 120 187 126c29.333 -24 54 -59.667 74 -107l46 -123c23.333 -14.667 40 -7.66699 50 21l52 255c-26.667 53.333 -57.667 122 -93 206c-26 30.667 -51.333 43 -76 37l-123.5 -118
c-41 -40 -74.5 -81.667 -100.5 -125c-16.667 -34.667 -49.667 -83.667 -99 -147c-76 -68 -182.333 -119.333 -319 -154c-119.333 -26 -237 -53.667 -353 -83c-66.667 -34.667 -93.667 -86.667 -81 -156c36 -18.667 65 -27 87 -25c41.333 -18 96.333 -36.667 165 -56
c56 -16 112.667 -31 170 -45c24 -2 51.333 -14.333 82 -37c-56.667 -34 -123.334 -62 -200.001 -84s-198.334 -30.333 -365.001 -25v-277zM975.002 9l0.000976562 11l158 211h8c56 -60.667 126 -115 210 -163c2.66699 -2.66699 4 -5.66699 4 -9l-153 -207
c-2 -0.666992 -4.66699 -1 -8 -1c-4.66699 0 -12.334 2 -23.001 6c-52.667 24 -118 74.667 -196 152zM194.003 -246l0.000976562 11l158 211h8c56 -60.667 126 -115 210 -163c2.66699 -2.66699 4 -5.66699 4 -9l-153 -207c-2 -0.666992 -4.66699 -1 -8 -1
c-4.66699 0 -12.334 2 -23.001 6c-52.667 24 -118 74.667 -196 152z" />
    <glyph glyph-name="uniFC9D" unicode="&#xfe91;&#xfea4;" horiz-adv-x="1336" arabic-form="initial" 
d="M-5 0c262 15.333 492.002 84 690.002 206c38 4.66699 91 10 159 16c86 9.33301 139 16 159 20c44.667 46.667 77.667 140.667 99 282c-109.333 4 -272.333 21.333 -489 52c-18 8 -55 16 -111 24c-47.333 7.33301 -81 19 -101 35c20 10 77 23.333 171 40
c72 14 124.667 36.667 158 68c24 18 78 76 162 174c64 78 126.333 120 187 126c29.333 -24 54 -59.667 74 -107l46 -123c23.333 -14.667 40 -7.66699 50 21l52 255c-26.667 53.333 -57.667 122 -93 206c-26 30.667 -51.333 43 -76 37l-123.5 -118
c-41 -40 -74.5 -81.667 -100.5 -125c-16.667 -34.667 -49.667 -83.667 -99 -147c-76 -68 -182.333 -119.333 -319 -154c-119.333 -26 -237 -53.667 -353 -83c-66.667 -34.667 -93.667 -86.667 -81 -156c36 -18.667 65 -27 87 -25c41.333 -18 96.333 -36.667 165 -56
c56 -16 112.667 -31 170 -45c24 -2 51.333 -14.333 82 -37c-56.667 -34 -123.334 -62 -200.001 -84s-198.334 -30.333 -365.001 -25v-277zM926.002 -31l0.000976562 11l158 211h8c56 -60.667 126 -115 210 -163c2.66699 -2.66699 4 -5.66699 4 -9l-153 -207
c-2 -0.666992 -4.66699 -1 -8 -1c-4.66699 0 -12.334 2 -23.001 6c-52.667 24 -118 74.667 -196 152z" />
    <glyph glyph-name="uniFC9E" unicode="&#xfe91;&#xfea8;" horiz-adv-x="1328" arabic-form="initial" 
d="M-5 0c262 15.333 492.002 84 690.002 206c38 4.66699 91 10 159 16c86 9.33301 139 16 159 20c44.667 46.667 77.667 140.667 99 282c-109.333 4 -272.333 21.333 -489 52c-18 8 -55 16 -111 24c-47.333 7.33301 -81 19 -101 35c20 10 77 23.333 171 40
c72 14 124.667 36.667 158 68c24 18 78 76 162 174c64 78 126.333 120 187 126c29.333 -24 54 -59.667 74 -107l46 -123c23.333 -14.667 40 -7.66699 50 21l52 255c-26.667 53.333 -57.667 122 -93 206c-26 30.667 -51.333 43 -76 37l-123.5 -118
c-41 -40 -74.5 -81.667 -100.5 -125c-16.667 -34.667 -49.667 -83.667 -99 -147c-76 -68 -182.333 -119.333 -319 -154c-119.333 -26 -237 -53.667 -353 -83c-66.667 -34.667 -93.667 -86.667 -81 -156c36 -18.667 65 -27 87 -25c41.333 -18 96.333 -36.667 165 -56
c56 -16 112.667 -31 170 -45c24 -2 51.333 -14.333 82 -37c-56.667 -34 -123.334 -62 -200.001 -84s-198.334 -30.333 -365.001 -25v-277zM854.002 -51l0.000976562 11l158 211h8c56 -60.667 126 -115 210 -163c2.66699 -2.66699 4 -5.66699 4 -9l-153 -207
c-2 -0.666992 -4.66699 -1 -8 -1c-4.66699 0 -12.334 2 -23.001 6c-52.667 24 -118 74.667 -196 152zM166.003 1092l0.000976562 11l158 211h8c56 -60.667 126 -115 210 -163c2.66699 -2.66699 4 -5.66699 4 -9l-153 -207c-2 -0.666992 -4.66699 -1 -8 -1
c-4.66699 0 -12.334 2 -23.001 6c-52.667 24 -118 74.667 -196 152z" />
    <glyph glyph-name="uniFC9F" unicode="&#xfe91;&#xfee4;" horiz-adv-x="1396" arabic-form="initial" 
d="M-5 276c182 -0.666992 323 43 423 131c40.667 183.333 110 342.333 208 477c121.333 164 264 257 428 279c60.667 10 111.667 -5 153 -45c8.66699 -24.667 13 -51.667 13 -81c0 2 -12.333 -74.333 -37 -229c-4 -15.333 -14.667 -30 -32 -44c-26 43.333 -46 70 -60 80
c-30.667 10 -60.667 20.333 -90 31c-72 -4 -180.333 -52.333 -325 -145l-92 -110c-30.667 -42.667 -49 -84.667 -55 -126c14 -6 28 -4 42 6c-4 0 35 8 117 24c66 -18 113 -35.333 141 -52c52 -26 86 -61.667 102 -107c8 -32.667 12 -64.667 12 -96
c0 -66.667 -19.667 -146 -59 -238c-48.667 -47.333 -105.667 -71 -171 -71c-18.667 0 -37 2 -55 6c-101.333 6 -178.333 75.667 -231 209c-16 2 -35.667 -8.66699 -59 -32c-26 -28 -42.333 -43 -49 -45c-63.333 -60 -171.333 -93.333 -324 -100v278zM990 76l0.000976562 11
l158 211h8c56 -60.667 126 -115 210 -163c2.66699 -2.66699 4 -5.66699 4 -9l-153 -207c-2 -0.666992 -4.66699 -1 -8 -1c-4.66699 0 -12.334 2 -23.001 6c-52.667 24 -118 74.667 -196 152z" />
    <glyph glyph-name="uniFCA1" unicode="&#xfe97;&#xfea0;" horiz-adv-x="1467" arabic-form="initial" 
d="M-5 0c262 15.333 492.002 84 690.002 206c38 4.66699 91 10 159 16c86 9.33301 139 16 159 20c44.667 46.667 77.667 140.667 99 282c-109.333 4 -272.333 21.333 -489 52c-18 8 -55 16 -111 24c-47.333 7.33301 -81 19 -101 35c20 10 77 23.333 171 40
c72 14 124.667 36.667 158 68c24 18 78 76 162 174c64 78 126.333 120 187 126c29.333 -24 54 -59.667 74 -107l46 -123c23.333 -14.667 40 -7.66699 50 21l52 255c-26.667 53.333 -57.667 122 -93 206c-26 30.667 -51.333 43 -76 37l-123.5 -118
c-41 -40 -74.5 -81.667 -100.5 -125c-16.667 -34.667 -49.667 -83.667 -99 -147c-76 -68 -182.333 -119.333 -319 -154c-119.333 -26 -237 -53.667 -353 -83c-66.667 -34.667 -93.667 -86.667 -81 -156c36 -18.667 65 -27 87 -25c41.333 -18 96.333 -36.667 165 -56
c56 -16 112.667 -31 170 -45c24 -2 51.333 -14.333 82 -37c-56.667 -34 -123.334 -62 -200.001 -84s-198.334 -30.333 -365.001 -25v-277zM286.002 -232l0.000976562 11l158 211h8c56 -60.667 126 -115 210 -163c2.66699 -2.66699 4 -5.66699 4 -9l-153 -207
c-2 -0.666992 -4.66699 -1 -8 -1c-4.66699 0 -12.334 2 -23.001 6c-52.667 24 -118 74.667 -196 152zM764.003 1526l-0.00195312 9.99805c33.333 46.667 81.333 110.334 144 191.001h7c12.667 -14 48.334 -42.667 107.001 -86l85 -63c32 44.667 75 101.334 129 170.001h7
c50.667 -54 114.334 -103 191.001 -147c2 -1.33301 3 -4.33301 3 -9l-140 -187c-0.666992 -1.33301 -2.66699 -2 -6 -2c-4.66699 0 -12 1.66699 -22 5c-47.333 22 -106.333 68.667 -177 140v1l-123 -165c-0.666992 -1.33301 -2.66699 -2 -6 -2c-4.66699 0 -12 1.66699 -22 5
c-47.333 22 -106.333 68.333 -177 139z" />
    <glyph glyph-name="uniFCA2" unicode="&#xfe97;&#xfea4;" horiz-adv-x="1461" arabic-form="initial" 
d="M-5 0c262 15.333 492.002 84 690.002 206c38 4.66699 91 10 159 16c86 9.33301 139 16 159 20c44.667 46.667 77.667 140.667 99 282c-109.333 4 -272.333 21.333 -489 52c-18 8 -55 16 -111 24c-47.333 7.33301 -81 19 -101 35c20 10 77 23.333 171 40
c72 14 124.667 36.667 158 68c24 18 78 76 162 174c64 78 126.333 120 187 126c29.333 -24 54 -59.667 74 -107l46 -123c23.333 -14.667 40 -7.66699 50 21l52 255c-26.667 53.333 -57.667 122 -93 206c-26 30.667 -51.333 43 -76 37l-123.5 -118
c-41 -40 -74.5 -81.667 -100.5 -125c-16.667 -34.667 -49.667 -83.667 -99 -147c-76 -68 -182.333 -119.333 -319 -154c-119.333 -26 -237 -53.667 -353 -83c-66.667 -34.667 -93.667 -86.667 -81 -156c36 -18.667 65 -27 87 -25c41.333 -18 96.333 -36.667 165 -56
c56 -16 112.667 -31 170 -45c24 -2 51.333 -14.333 82 -37c-56.667 -34 -123.334 -62 -200.001 -84s-198.334 -30.333 -365.001 -25v-277zM758.002 1558l-0.00195312 9.99805c33.333 46.667 81.333 110.334 144 191.001h7c12.667 -14 48.334 -42.667 107.001 -86l85 -63
c32 44.667 75 101.334 129 170.001h7c50.667 -54 114.334 -103 191.001 -147c2 -1.33301 3 -4.33301 3 -9l-140 -187c-0.666992 -1.33301 -2.66699 -2 -6 -2c-4.66699 0 -12 1.66699 -22 5c-47.333 22 -106.333 68.667 -177 140v1l-123 -165
c-0.666992 -1.33301 -2.66699 -2 -6 -2c-4.66699 0 -12 1.66699 -22 5c-47.333 22 -106.333 68.333 -177 139z" />
    <glyph glyph-name="uniFCA3" unicode="&#xfe97;&#xfea8;" horiz-adv-x="1567" arabic-form="initial" 
d="M-5 0c262 15.333 492.002 84 690.002 206c38 4.66699 91 10 159 16c86 9.33301 139 16 159 20c44.667 46.667 77.667 140.667 99 282c-109.333 4 -272.333 21.333 -489 52c-18 8 -55 16 -111 24c-47.333 7.33301 -81 19 -101 35c20 10 77 23.333 171 40
c72 14 124.667 36.667 158 68c24 18 78 76 162 174c64 78 126.333 120 187 126c29.333 -24 54 -59.667 74 -107l46 -123c23.333 -14.667 40 -7.66699 50 21l52 255c-26.667 53.333 -57.667 122 -93 206c-26 30.667 -51.333 43 -76 37l-123.5 -118
c-41 -40 -74.5 -81.667 -100.5 -125c-16.667 -34.667 -49.667 -83.667 -99 -147c-76 -68 -182.333 -119.333 -319 -154c-119.333 -26 -237 -53.667 -353 -83c-66.667 -34.667 -93.667 -86.667 -81 -156c36 -18.667 65 -27 87 -25c41.333 -18 96.333 -36.667 165 -56
c56 -16 112.667 -31 170 -45c24 -2 51.333 -14.333 82 -37c-56.667 -34 -123.334 -62 -200.001 -84s-198.334 -30.333 -365.001 -25v-277zM788.002 1512l-0.00195312 9.99805c33.333 46.667 81.333 110.334 144 191.001h7c12.667 -14 48.334 -42.667 107.001 -86l85 -63
c32 44.667 75 101.334 129 170.001h7c50.667 -54 114.334 -103 191.001 -147c2 -1.33301 3 -4.33301 3 -9l-140 -187c-0.666992 -1.33301 -2.66699 -2 -6 -2c-4.66699 0 -12 1.66699 -22 5c-47.333 22 -106.333 68.667 -177 140v1l-123 -165
c-0.666992 -1.33301 -2.66699 -2 -6 -2c-4.66699 0 -12 1.66699 -22 5c-47.333 22 -106.333 68.333 -177 139zM213 1089l0.000976562 11l158 211h8c56 -60.667 126 -115 210 -163c2.66699 -2.66699 4 -5.66699 4 -9l-153 -207c-2 -0.666992 -4.66699 -1 -8 -1
c-4.66699 0 -12.334 2 -23.001 6c-52.667 24 -118 74.667 -196 152z" />
    <glyph glyph-name="uniFCA4" unicode="&#xfe97;&#xfee4;" horiz-adv-x="1283" arabic-form="initial" 
d="M-5 276c182 -0.666992 323 43 423 131c40.667 183.333 110 342.333 208 477c121.333 164 264 257 428 279c60.667 10 111.667 -5 153 -45c8.66699 -24.667 13 -51.667 13 -81c0 2 -12.333 -74.333 -37 -229c-4 -15.333 -14.667 -30 -32 -44c-26 43.333 -46 70 -60 80
c-30.667 10 -60.667 20.333 -90 31c-72 -4 -180.333 -52.333 -325 -145l-92 -110c-30.667 -42.667 -49 -84.667 -55 -126c14 -6 28 -4 42 6c-4 0 35 8 117 24c66 -18 113 -35.333 141 -52c52 -26 86 -61.667 102 -107c8 -32.667 12 -64.667 12 -96
c0 -66.667 -19.667 -146 -59 -238c-48.667 -47.333 -105.667 -71 -171 -71c-18.667 0 -37 2 -55 6c-101.333 6 -178.333 75.667 -231 209c-16 2 -35.667 -8.66699 -59 -32c-26 -28 -42.333 -43 -49 -45c-63.333 -60 -171.333 -93.333 -324 -100v278zM584 1409
l-0.00195312 9.99805c33.333 46.667 81.333 110.334 144 191.001h7c12.667 -14 48.334 -42.667 107.001 -86l85 -63c32 44.667 75 101.334 129 170.001h7c50.667 -54 114.334 -103 191.001 -147c2 -1.33301 3 -4.33301 3 -9l-140 -187c-0.666992 -1.33301 -2.66699 -2 -6 -2
c-4.66699 0 -12 1.66699 -22 5c-47.333 22 -106.333 68.667 -177 140v1l-123 -165c-0.666992 -1.33301 -2.66699 -2 -6 -2c-4.66699 0 -12 1.66699 -22 5c-47.333 22 -106.333 68.333 -177 139z" />
    <glyph glyph-name="uniFCA6" unicode="&#xfe9b;&#xfee4;" horiz-adv-x="1299" arabic-form="initial" 
d="M-5 276c182 -0.666992 323 43 423 131c40.667 183.333 110 342.333 208 477c121.333 164 264 257 428 279c60.667 10 111.667 -5 153 -45c8.66699 -24.667 13 -51.667 13 -81c0 2 -12.333 -74.333 -37 -229c-4 -15.333 -14.667 -30 -32 -44c-26 43.333 -46 70 -60 80
c-30.667 10 -60.667 20.333 -90 31c-72 -4 -180.333 -52.333 -325 -145l-92 -110c-30.667 -42.667 -49 -84.667 -55 -126c14 -6 28 -4 42 6c-4 0 35 8 117 24c66 -18 113 -35.333 141 -52c52 -26 86 -61.667 102 -107c8 -32.667 12 -64.667 12 -96
c0 -66.667 -19.667 -146 -59 -238c-48.667 -47.333 -105.667 -71 -171 -71c-18.667 0 -37 2 -55 6c-101.333 6 -178.333 75.667 -231 209c-16 2 -35.667 -8.66699 -59 -32c-26 -28 -42.333 -43 -49 -45c-63.333 -60 -171.333 -93.333 -324 -100v278zM741 1739v9.99902
c33.333 46.667 81.333 110.334 144 191.001h7c50 -54.667 113.667 -103.667 191 -147c1.33301 -2 2 -5 2 -9l-139 -188c-1.33301 -0.666992 -3.33301 -1 -6 -1c-4.66699 0 -11.667 1.66699 -21 5c-48 22 -107.333 68.333 -178 139zM604 1401l-0.00195312 9.99805
c33.333 46.667 81.333 110.334 144 191.001h7c12.667 -14 48.334 -42.667 107.001 -86l85 -63c32 44.667 75 101.334 129 170.001h7c50.667 -54 114.334 -103 191.001 -147c2 -1.33301 3 -4.33301 3 -9l-140 -187c-0.666992 -1.33301 -2.66699 -2 -6 -2
c-4.66699 0 -12 1.66699 -22 5c-47.333 22 -106.333 68.667 -177 140v1l-123 -165c-0.666992 -1.33301 -2.66699 -2 -6 -2c-4.66699 0 -12 1.66699 -22 5c-47.333 22 -106.333 68.333 -177 139z" />
    <glyph glyph-name="uniFCA7" unicode="&#xfe9f;&#xfea4;" horiz-adv-x="1613" arabic-form="initial" 
d="M1444 848c-115.333 0 -250.332 -21.666 -404.999 -64.999c-129.333 -36.667 -245 -67.834 -347 -93.501s-156 -46.5 -162 -62.5c88 -34.667 210 -58 366 -70c192 -15.333 314.333 -28 367 -38c-4 -24 -12.5 -59.5 -25.5 -106.5s-27.833 -87.833 -44.5 -122.5
c-22 -33.333 -58.667 -53 -110 -59c-82 -12.667 -126 -20 -132 -22c-50 -10 -110.167 -25.333 -180.5 -46l-323 -97c-145 -44 -296.833 -65.667 -455.5 -65v276c151.333 -8.66699 265 -5.66699 341 9s180.667 45.334 314 92.001c-99.333 27.333 -243 71.333 -431 132l-67 9
c0 80 39 141.667 117 185c85.333 30.667 163.333 60 234 88c64 29.333 153 60.333 267 93c129.333 37.333 220 66 272 86c-164 84 -296.667 126 -398 126c-48.667 0 -95.667 -8 -141 -24c-26 -10 -48.333 -32.667 -67 -68c-24 -52.667 -38.667 -81.667 -44 -87
c-10.667 0.666992 -16 6 -16 16c0 12 3.33301 31.833 10 59.5s12 47.167 16 58.5c61.333 181.333 153.666 263.666 276.999 246.999c102 -4 251.333 -41.333 448 -112c188 -70 340.667 -105 458 -105c4 -4 6 -9 6 -15c0 -8 -5 -18.833 -15 -32.5s-15 -23.5 -15 -29.5
c-19.333 -38.667 -57.333 -91 -114 -157zM1099 19.001l0.000976562 11l158 211h8c56 -60.667 126 -115 210 -163c2.66699 -2.66699 4 -5.66699 4 -9l-153 -207c-2 -0.666992 -4.66699 -1 -8 -1c-4.66699 0 -12.334 2 -23.001 6c-52.667 24 -118 74.667 -196 152z" />
    <glyph glyph-name="uniFCA8" unicode="&#xfe9f;&#xfee4;" horiz-adv-x="1637" arabic-form="initial" 
d="M-6 275c34.667 0 80.666 6.00098 137.999 18.001c51.333 10 110 39.333 176 88c94 70 147 109 159 117c50.667 51.333 112 93.333 184 126c53.333 24 123 48.667 209 74c120.667 32.667 193.667 53 219 61c-8 8 -22.833 16 -44.5 24s-36.834 18.667 -45.501 32
c-137.333 62.667 -238.333 94 -303 94c-35.333 0 -69.333 -6 -102 -18c-14 -14 -29.833 -37.5 -47.5 -70.5s-32.5 -55.5 -44.5 -67.5c-16.667 8 -25 21 -25 39c0 13.333 6.66699 33.666 20 60.999s20 47 20 59c18 21.333 40.667 55.333 68 102c56.667 47.333 123 71 199 71
c57.333 0 133.333 -17.667 228 -53c120 -44.667 192.667 -69 218 -73c62.667 -23.333 195.667 -54 399 -92c0 -22.667 -7 -50.667 -21 -84c-19.333 -44.667 -30 -72 -32 -82c-14 -25.333 -41.333 -55 -82 -89c-27.333 4 -55 6 -83 6c-46.667 0 -106 -7.33301 -178 -22
c-59.333 -10 -119 -21 -179 -33c-14 -10 -40 -18.333 -78 -25s-64 -17 -78 -31c28 -94 42 -150.333 42 -169c-42.667 -182 -99.667 -303.333 -171 -364c-40.667 -2 -85 9.16699 -133 33.5l-137 69.5l-126 93c-10.667 10 -24 26 -40 48
c-29.333 -57.333 -77.666 -107.5 -144.999 -150.5s-128.666 -66.167 -183.999 -69.5v277zM539.999 390.001c55.333 -53.333 101.999 -86.168 139.999 -98.501s63.333 -11.833 76 1.5c-1.33301 89.333 -39.666 139 -114.999 149c-50 -15.333 -83.667 -32.666 -101 -51.999z
M1013 89.999l0.000976562 11l158 211h8c56 -60.667 126 -115 210 -163c2.66699 -2.66699 4 -5.66699 4 -9l-153 -207c-2 -0.666992 -4.66699 -1 -8 -1c-4.66699 0 -12.334 2 -23.001 6c-52.667 24 -118 74.667 -196 152z" />
    <glyph glyph-name="uniFCA9" unicode="&#xfea3;&#xfea0;" horiz-adv-x="1612" arabic-form="initial" 
d="M1444 848c-115.333 0 -250.332 -21.666 -404.999 -64.999c-129.333 -36.667 -245 -67.834 -347 -93.501s-156 -46.5 -162 -62.5c88 -34.667 210 -58 366 -70c192 -15.333 314.333 -28 367 -38c-4 -24 -12.5 -59.5 -25.5 -106.5s-27.833 -87.833 -44.5 -122.5
c-22 -33.333 -58.667 -53 -110 -59c-82 -12.667 -126 -20 -132 -22c-50 -10 -110.167 -25.333 -180.5 -46l-323 -97c-145 -44 -296.833 -65.667 -455.5 -65v276c151.333 -8.66699 265 -5.66699 341 9s180.667 45.334 314 92.001c-99.333 27.333 -243 71.333 -431 132l-67 9
c0 80 39 141.667 117 185c85.333 30.667 163.333 60 234 88c64 29.333 153 60.333 267 93c129.333 37.333 220 66 272 86c-164 84 -296.667 126 -398 126c-48.667 0 -95.667 -8 -141 -24c-26 -10 -48.333 -32.667 -67 -68c-24 -52.667 -38.667 -81.667 -44 -87
c-10.667 0.666992 -16 6 -16 16c0 12 3.33301 31.833 10 59.5s12 47.167 16 58.5c61.333 181.333 153.666 263.666 276.999 246.999c102 -4 251.333 -41.333 448 -112c188 -70 340.667 -105 458 -105c4 -4 6 -9 6 -15c0 -8 -5 -18.833 -15 -32.5s-15 -23.5 -15 -29.5
c-19.333 -38.667 -57.333 -91 -114 -157zM325.001 -224.999l0.000976562 11l158 211h8c56 -60.667 126 -115 210 -163c2.66699 -2.66699 4 -5.66699 4 -9l-153 -207c-2 -0.666992 -4.66699 -1 -8 -1c-4.66699 0 -12.334 2 -23.001 6c-52.667 24 -118 74.667 -196 152z" />
    </font>
</defs>
</svg>
