<?xml version="1.0" standalone="no"?>
<!DOCTYPE svg PUBLIC "-//W3C//DTD SVG 1.1//EN" "http://www.w3.org/Graphics/SVG/1.1/DTD/svg11.dtd" >
<svg>
<metadata>
Created by FontForge 20090914 at Wed Sep 18 08:47:58 2019
 By www-data
&#194;&#169; 2015 Apple Inc. All rights reserved.
</metadata>
<defs>
<font id="SFUIText-Regular" horiz-adv-x="0" >
  <font-face 
    font-family="SF UI Text"
    font-weight="400"
    font-stretch="normal"
    units-per-em="2048"
    panose-1="0 0 5 0 0 0 0 0 0 0"
    ascent="1638"
    descent="-410"
    x-height="1078"
    cap-height="1443"
    bbox="-626 -573 2698 2173"
    underline-thickness="120"
    underline-position="-250"
    unicode-range="U+0020-U+FB02"
  />
<missing-glyph horiz-adv-x="2048" 
d="M100 -494v284h1848v-284h-1848zM100 -62v284h1848v-284h-1848zM100 370v284h1848v-284h-1848zM100 802v284h1848v-284h-1848zM100 1234v284h1848v-284h-1848zM100 1666v284h1848v-284h-1848z" />
    <glyph glyph-name=".notdef" horiz-adv-x="2048" 
d="M100 -494v284h1848v-284h-1848zM100 -62v284h1848v-284h-1848zM100 370v284h1848v-284h-1848zM100 802v284h1848v-284h-1848zM100 1234v284h1848v-284h-1848zM100 1666v284h1848v-284h-1848z" />
    <glyph glyph-name="space" unicode=" " horiz-adv-x="578" 
 />
    <glyph glyph-name="exclam" unicode="!" horiz-adv-x="637" 
d="M218 1444h200l-17 -964h-166zM180 121c0 40.667 13 74.167 39 100.5s59.333 39.5 100 39.5s73.834 -13 99.501 -39s38.5 -59.667 38.5 -101c0 -40.667 -12.833 -74 -38.5 -100s-58.834 -39 -99.501 -39s-74 13 -100 39s-39 59.333 -39 100z" />
    <glyph glyph-name="quotedbl" unicode="&#x22;" horiz-adv-x="895" 
d="M339 904h-160v539h160v-539zM716 904h-160v539h160v-539z" />
    <glyph glyph-name="numbersign" unicode="#" horiz-adv-x="1296" 
d="M1195 901h-216l-70 -344h216l-29 -144h-216l-84 -413h-144l85 413h-307l-84 -413h-143l84 413h-216l31 144h216l69 344h-216l29 143h216l82 399h143l-81 -399h306l82 399h144l-83 -399h216zM528 903l-70 -349h309l71 349h-310z" />
    <glyph glyph-name="dollar" unicode="$" horiz-adv-x="1328" 
d="M732 -137l-134 0.00195312v134c-135.333 10 -243.666 51.167 -324.999 123.5s-122.333 163.833 -123 274.5h171c5.33301 -66.667 32.333 -121.334 81 -164.001s114 -69 196 -79v520l-80 22c-107.333 28.667 -189.666 75 -246.999 139s-86 142 -86 234
c0 108.667 37 198.167 111 268.5s174.667 111.833 302 124.5v140h134v-139c124 -10.667 224.167 -51.5 300.5 -122.5s116.166 -160.833 119.499 -269.5h-170c-2 62.667 -25.833 115.667 -71.5 159s-105.167 69.333 -178.5 78v-489l86 -21
c123.333 -32.667 214.166 -80.5 272.499 -143.5s87.5 -144.5 87.5 -244.5c0 -118.667 -39 -213.834 -117 -285.501s-187.667 -113.167 -329 -124.5v-135zM1005 394.002c0 66.667 -22.001 120.166 -66.001 160.499s-113 70.5 -207 90.5v-496
c86.667 4.66699 153.834 28.334 201.501 71.001s71.5 100.667 71.5 174zM356.999 1077c0 -59.333 20.5 -108.5 61.5 -147.5s100.833 -66.833 179.5 -83.5v460c-70 -4 -127.667 -27.5 -173 -70.5s-68 -95.833 -68 -158.5z" />
    <glyph glyph-name="percent" unicode="%" horiz-adv-x="1610" 
d="M1223 103c44 0 79.499 20.1689 106.499 60.502s40.5 93.5 40.5 159.5c0 67.333 -13.167 120.666 -39.5 159.999s-62.166 59 -107.499 59c-44.667 0 -80.5 -19.833 -107.5 -59.5s-40.5 -92.834 -40.5 -159.501s13.5 -120 40.5 -160s62.833 -60 107.5 -60zM1223 -24.998
c-90 0 -163.833 32.5 -221.5 97.5s-86.5 148.5 -86.5 250.5c0 101.333 28.833 184.5 86.5 249.5s131.5 97.5 221.5 97.5s163.667 -32.333 221 -97s86 -148 86 -250s-28.667 -185.5 -86 -250.5s-131 -97.5 -221 -97.5zM387.999 773.002c-90 0 -163.833 32.5 -221.5 97.5
s-86.5 148.5 -86.5 250.5c0 101.333 28.833 184.5 86.5 249.5s131.5 97.5 221.5 97.5s163.667 -32.333 221 -97s86 -148 86 -250s-28.667 -185.5 -86 -250.5s-131 -97.5 -221 -97.5zM371.999 0.00195312h-184l551 752l506 691h182l-560 -766zM387.999 901.002
c44 0 79.499 20.1689 106.499 60.502s40.5 93.5 40.5 159.5c0 67.333 -13.167 120.666 -39.5 159.999s-62.166 59 -107.499 59c-44.667 0 -80.5 -19.833 -107.5 -59.5s-40.5 -92.834 -40.5 -159.501s13.5 -120 40.5 -160s62.833 -60 107.5 -60z" />
    <glyph glyph-name="ampersand" unicode="&#x26;" horiz-adv-x="1457" 
d="M1203 0l-133.001 144c-62 -54 -133.5 -96 -214.5 -126s-165.167 -45 -252.5 -45c-143.333 0 -260.5 38.333 -351.5 115s-136.5 175.667 -136.5 297c0 168 95.333 302.333 286 403l56 28c-66 69.333 -112.667 129.833 -140 181.5s-41 103.834 -41 156.501
c0 92.667 35 169.667 105 231s157.667 92 263 92c106.667 0 194.667 -30.5 264 -91.5s104 -138.833 104 -233.5c0 -74 -24.167 -140 -72.5 -198s-128.166 -116.333 -239.499 -175l361 -388c45.333 90.667 68 220 68 388v25h168v-26
c0 -216.667 -39.667 -386.334 -119 -509.001l251 -269h-226zM504.999 682c-140 -72.667 -210 -167.666 -210 -284.999c0 -81.333 29.833 -147 89.5 -197s137.834 -75 234.501 -75c66 0 130.167 12.167 192.5 36.5s113.166 57.166 152.499 98.499l-408 446
c-7.33301 -2.66699 -24.333 -10.667 -51 -24zM602.999 881.001c88 44.667 150.001 87 186.001 127s54 86 54 138c0 56 -18.333 101.333 -55 136s-84.334 52 -143.001 52c-57.333 0 -104.5 -17.667 -141.5 -53s-55.5 -81 -55.5 -137c0 -40 11.667 -79.667 35 -119
s63.333 -87.333 120 -144z" />
    <glyph glyph-name="quotesingle" unicode="'" horiz-adv-x="518" 
d="M339 904h-160v539h160v-539z" />
    <glyph glyph-name="parenleft" unicode="(" horiz-adv-x="728" 
d="M601 -277l-152 -0.00195312c-86 107.333 -152.5 237.5 -199.5 390.5s-70.5 315.167 -70.5 486.5c0 170.667 22 322.167 66 454.5s115.333 261.5 214 387.5h145c-72.667 -85.333 -132.167 -206.666 -178.5 -363.999s-69.5 -316.666 -69.5 -477.999
c0 -156 19.5 -303.833 58.5 -443.5s101.167 -284.167 186.5 -433.5z" />
    <glyph glyph-name="parenright" unicode=")" horiz-adv-x="728" 
d="M126 -277c85.333 149.333 147.499 293.835 186.499 433.502s58.5 287.5 58.5 443.5c0 162.667 -23 322.5 -69 479.5s-105.333 277.833 -178 362.5h146c98.667 -126 169.834 -255 213.501 -387s65.5 -283.667 65.5 -455c0 -170.667 -23.5 -332.334 -70.5 -485.001
s-113.5 -283.334 -199.5 -392.001h-153z" />
    <glyph glyph-name="asterisk" unicode="*" horiz-adv-x="1054" 
d="M631 1062l259 -131l-67 -116l-244 158l16 -289h-136l16 290l-244 -159l-67 116l260 131l-260 132l67 118l244 -163l-16 294h136l-16 -294l244 163l67 -118z" />
    <glyph glyph-name="plus" unicode="+" horiz-adv-x="1328" 
d="M738 506v-435h-148v435h-435v148h435v435h148v-435h435v-148h-435z" />
    <glyph glyph-name="comma" unicode="," horiz-adv-x="608" 
d="M285 -367h-150l96 569h202z" />
    <glyph glyph-name="hyphen" unicode="-" horiz-adv-x="966" 
d="M811 499h-656v163h656v-163z" />
    <glyph glyph-name="hyphen" unicode="&#x2011;" horiz-adv-x="966" 
d="M811 499h-656v163h656v-163z" />
    <glyph glyph-name="period" unicode="." horiz-adv-x="608" 
d="M304 -10c-35.333 0 -65.833 12.833 -91.5 38.5s-38.5 56.167 -38.5 91.5c0 36 12.833 66.667 38.5 92s56.167 38 91.5 38c36 0 66.667 -12.667 92 -38s38 -56 38 -92c0 -35.333 -12.667 -65.833 -38 -91.5s-56 -38.5 -92 -38.5z" />
    <glyph glyph-name="slash" unicode="/" horiz-adv-x="712" 
d="M210 -325h-150l440 1768h152z" />
    <glyph glyph-name="zero" unicode="0" horiz-adv-x="1290" 
d="M646 -34c-162.667 0 -288.668 65.999 -378.001 197.999s-134 318 -134 558c0 238 45 423.333 135 556s215.667 199 377 199c160.667 0 285.834 -66.667 375.501 -200s134.5 -319.333 134.5 -558c0 -239.333 -44.5 -424.666 -133.5 -555.999s-214.5 -197 -376.5 -197z
M645.999 122.999c106.667 0 188.167 51.502 244.5 154.502s84.5 251.167 84.5 444.5c0 191.333 -28.5 338.666 -85.5 441.999s-138.167 155 -243.5 155s-186.833 -51.833 -244.5 -155.5s-86.5 -250.834 -86.5 -441.501c0 -192.667 28.5 -340.667 85.5 -444
s138.833 -155 245.5 -155z" />
    <glyph glyph-name="one" unicode="1" horiz-adv-x="955" 
d="M506 0v1243h-16l-367 -266v190l384 276h179v-1443h-180z" />
    <glyph glyph-name="two" unicode="2" horiz-adv-x="1237" 
d="M152 1037c0 128 43.498 233.334 130.498 316.001s197.5 124 331.5 124c129.333 0 237.833 -38.833 325.5 -116.5s131.5 -173.834 131.5 -288.501c0 -75.333 -21.333 -149.333 -64 -222s-123 -172.334 -241 -299.001l-347 -373v-16h676v-162h-934v124l499 545
c92.667 100.667 154.334 177.334 185.001 230.001s46 108 46 166c0 72 -27.167 132.5 -81.5 181.5s-121.166 73.5 -200.499 73.5c-84.667 0 -153 -26 -205 -78s-78 -120.333 -78 -205v-1h-174v1z" />
    <glyph glyph-name="three" unicode="3" horiz-adv-x="1284" 
d="M456 665l-0.000976562 154.002h175c82 0 149.167 24 201.5 72s78.5 109.333 78.5 184c0 73.333 -25.333 132.5 -76 177.5s-117.667 67.5 -201 67.5s-150.666 -21.833 -201.999 -65.5s-80.666 -104.167 -87.999 -181.5h-175c9.33301 125.333 56 224 140 296
s194.667 108 332 108c82.667 0 158.834 -16.833 228.501 -50.5s124.5 -79.5 164.5 -137.5s60 -121.333 60 -190c0 -86 -22.333 -158.667 -67 -218s-106.667 -98.666 -186 -117.999v-16c98 -12.667 175 -50.834 231 -114.501s84 -144.834 84 -243.501
c0 -118.667 -49 -218.834 -147 -300.501s-218.333 -122.5 -361 -122.5c-146.667 0 -266.334 37.5 -359.001 112.5s-142.334 174.167 -149.001 297.5h174c8 -76.667 42 -138 102 -184s136.667 -69 230 -69c94.667 0 172.5 25.333 233.5 76s91.5 115.667 91.5 195
c0 83.333 -29.667 149.333 -89 198s-140.333 73 -243 73h-183z" />
    <glyph glyph-name="four" unicode="4" horiz-adv-x="1318" 
d="M820 0v298.999h-703v164c132 234.667 338 561.334 618 980.001h261v-983h205v-161h-205v-299h-176zM301 470.999v-12h520v817h-12c-156 -226.667 -325.333 -495 -508 -805z" />
    <glyph glyph-name="five" unicode="5" horiz-adv-x="1267" 
d="M637 -34c-136.667 0 -249.668 38.4971 -339.001 115.497s-138 177.833 -146 302.5h177c8 -78 40.5 -140.833 97.5 -188.5s127.833 -71.5 212.5 -71.5c96.667 0 174.5 30.333 233.5 91s88.5 140.334 88.5 239.001s-29.5 178.834 -88.5 240.501s-135.833 92.5 -230.5 92.5
c-65.333 0 -124 -14.167 -176 -42.5s-92.667 -68.166 -122 -119.499h-169l79 818h805v-161h-664l-41 -463h16c70 82 171.667 123 305 123c137.333 0 249.333 -45 336 -135s130 -206 130 -348c0 -146.667 -46.667 -265.5 -140 -356.5s-214.666 -136.5 -363.999 -136.5z" />
    <glyph glyph-name="six" unicode="6" horiz-adv-x="1305" 
d="M671 -33c-108.667 0 -203.331 28.167 -283.998 84.5s-143.667 137.5 -189 243.5c-46.667 109.333 -70 243.333 -70 402c0 248 48.333 440 145 576s233.334 204 410.001 204c122.667 0 226.5 -33.833 311.5 -101.5s138.833 -159.5 161.5 -275.5h-185
c-19.333 67.333 -54.833 120.333 -106.5 159s-112.834 58 -183.501 58c-117.333 0 -208.5 -50.667 -273.5 -152s-99.833 -248 -104.5 -440h16c35.333 70 86.666 124.5 153.999 163.5s144 58.5 230 58.5c137.333 0 250.666 -45.5 339.999 -136.5s134 -206.5 134 -346.5
c0 -145.333 -47.333 -264.5 -142 -357.5s-216 -139.5 -364 -139.5zM669.003 125c92.667 0 170.166 31.8311 232.499 95.498s93.5 142.834 93.5 237.501c0 98.667 -30.167 178.834 -90.5 240.501s-138.166 92.5 -233.499 92.5s-173.833 -30.667 -235.5 -92
s-92.5 -139.666 -92.5 -234.999c0 -96.667 31.167 -177.334 93.5 -242.001s139.833 -97 232.5 -97z" />
    <glyph glyph-name="seven" unicode="7" horiz-adv-x="1167" 
d="M221 0l648 1268v14h-772v161h955v-167l-642 -1276h-189z" />
    <glyph glyph-name="eight" unicode="8" horiz-adv-x="1308" 
d="M654 -34c-152.667 0 -277.502 39.166 -374.502 117.499s-145.5 179.166 -145.5 302.499c0 94 27.333 174.667 82 242s127.334 109.333 218.001 126v16c-73.333 20 -131.833 59 -175.5 117s-65.5 126.333 -65.5 205c0 112.667 43.167 205 129.5 277s196.833 108 331.5 108
s245.167 -36 331.5 -108s129.5 -164.333 129.5 -277c0 -79.333 -21.5 -147.666 -64.5 -204.999s-101.833 -96.333 -176.5 -117v-16c90.667 -16.667 163.334 -58.667 218.001 -126s82 -148 82 -242c0 -123.333 -48.5 -224.166 -145.5 -302.499s-221.833 -117.5 -374.5 -117.5
zM653.998 119.999c100 0 181.333 25.833 244 77.5s94 118.834 94 201.501s-31.333 149.834 -94 201.501s-144 77.5 -244 77.5s-181.333 -25.833 -244 -77.5s-94 -118.834 -94 -201.501s31.333 -149.834 94 -201.501s144 -77.5 244 -77.5zM653.998 829.999
c85.333 0 154 22.5 206 67.5s78 104.167 78 177.5c0 74.667 -26 134.667 -78 180s-120.667 68 -206 68s-154 -22.667 -206 -68s-78 -105.333 -78 -180c0 -73.333 26 -132.5 78 -177.5s120.667 -67.5 206 -67.5z" />
    <glyph glyph-name="nine" unicode="9" horiz-adv-x="1305" 
d="M622 -33c-122.667 0 -226.502 33.833 -311.502 101.5s-138.833 159.5 -161.5 275.5h185c19.333 -67.333 54.833 -120.333 106.5 -159s112.834 -58 183.501 -58c117.333 0 208.5 50.667 273.5 152s99.833 248 104.5 440h-8h-4h-4
c-35.333 -70 -86.666 -124.5 -153.999 -163.5s-144 -58.5 -230 -58.5c-137.333 0 -250.666 45.5 -339.999 136.5s-134 206.5 -134 346.5c0 145.333 47.333 264.5 142 357.5s216 139.5 364 139.5c108 0 202.667 -28 284 -84s144.333 -137.333 189 -244
c46.667 -109.333 70 -243.333 70 -402c0 -248 -48.333 -440 -145 -576s-233.334 -204 -410.001 -204zM633.998 653c95.333 0 173.834 30.6689 235.501 92.002s92.5 139.666 92.5 234.999c0 96.667 -31.167 177.334 -93.5 242.001s-139.833 97 -232.5 97
s-170.167 -31.833 -232.5 -95.5s-93.5 -142.834 -93.5 -237.501c0 -98.667 30.167 -178.834 90.5 -240.501s138.166 -92.5 233.499 -92.5z" />
    <glyph glyph-name="colon" unicode=":" horiz-adv-x="608" 
d="M304 -10c-35.333 0 -65.833 12.833 -91.5 38.5s-38.5 56.167 -38.5 91.5c0 36 12.833 66.667 38.5 92s56.167 38 91.5 38c36 0 66.667 -12.667 92 -38s38 -56 38 -92c0 -35.333 -12.667 -65.833 -38 -91.5s-56 -38.5 -92 -38.5zM304 759
c-35.333 0 -65.833 12.833 -91.5 38.5s-38.5 56.167 -38.5 91.5c0 36 12.833 66.667 38.5 92s56.167 38 91.5 38c36 0 66.667 -12.667 92 -38s38 -56 38 -92c0 -35.333 -12.667 -65.833 -38 -91.5s-56 -38.5 -92 -38.5z" />
    <glyph glyph-name="semicolon" unicode=";" horiz-adv-x="608" 
d="M260 -367h-150l96 569h202zM304 759c-35.333 0 -65.833 12.833 -91.5 38.5s-38.5 56.167 -38.5 91.5c0 36 12.833 66.667 38.5 92s56.167 38 91.5 38c36 0 66.667 -12.667 92 -38s38 -56 38 -92c0 -35.333 -12.667 -65.833 -38 -91.5s-56 -38.5 -92 -38.5z" />
    <glyph glyph-name="less" unicode="&#x3c;" horiz-adv-x="1328" 
d="M1104 203v-186l-880 509v142l880 509v-186l-708 -386v-16z" />
    <glyph glyph-name="equal" unicode="=" horiz-adv-x="1328" 
d="M1168 312h-1008v149h1008v-149zM1168 700h-1008v149h1008v-149z" />
    <glyph glyph-name="greater" unicode="&#x3e;" horiz-adv-x="1328" 
d="M224 203l708 386v16l-708 386v186l880 -509v-142l-880 -509v186z" />
    <glyph glyph-name="question" unicode="?" horiz-adv-x="1050" 
d="M80 1066c6 114 46.502 207.165 121.502 279.498s179.833 108.5 314.5 108.5c124.667 0 226.5 -34.333 305.5 -103s118.5 -155 118.5 -259c0 -146 -69.667 -261 -209 -345c-62.667 -37.333 -105.5 -72.666 -128.5 -105.999s-34.5 -76.666 -34.5 -129.999v-65h-175v92
c-0.666992 65.333 15.166 122 47.499 170s83.166 92.667 152.499 134c58.667 36 100.167 72 124.5 108s36.5 80.333 36.5 133c0 62.667 -22.5 114.167 -67.5 154.5s-104.167 60.5 -177.5 60.5c-75.333 0 -135.833 -20.667 -181.5 -62s-71.167 -98 -76.5 -170h-171z
M494.002 -18.002c-40.667 0 -74 13 -100 39s-39 59.333 -39 100s13 74.167 39 100.5s59.333 39.5 100 39.5s73.834 -13 99.501 -39s38.5 -59.667 38.5 -101c0 -40.667 -12.833 -74 -38.5 -100s-58.834 -39 -99.501 -39z" />
    <glyph glyph-name="at" unicode="@" horiz-adv-x="1880" 
d="M934 875c-66.667 0 -118.834 -24.667 -156.501 -74s-56.5 -117.666 -56.5 -204.999c0 -86.667 18.833 -155 56.5 -205s89.167 -75 154.5 -75c68.667 0 123.334 25.333 164.001 76s61 118.667 61 204s-20.167 153.166 -60.5 203.499s-94.5 75.5 -162.5 75.5zM969 1435
c156 0 294.827 -31.0029 416.494 -93.0029s216.334 -148.833 284.001 -260.5s101.5 -239.167 101.5 -382.5c0 -163.333 -34 -293 -102 -389s-159.333 -144 -274 -144c-58.667 0 -108.5 15.667 -149.5 47s-64.5 71.666 -70.5 120.999h-16
c-21.333 -50.667 -53.666 -89.834 -96.999 -117.501s-94.333 -41.5 -153 -41.5c-104 0 -188 39 -252 117s-96 180.667 -96 308c0 121.333 32.333 220.5 97 297.5s148.334 115.5 251.001 115.5c52.667 0 100 -12.667 142 -38s72.667 -59.666 92 -102.999h16v122h151v-587
c0 -35.333 9.83301 -62.666 29.5 -81.999s47.5 -29 83.5 -29c62.667 0 112.834 36.667 150.501 110s56.5 171.666 56.5 294.999c0 119.333 -28.167 225 -84.5 317s-135.666 163.5 -237.999 214.5s-219.5 76.5 -351.5 76.5c-128.667 0 -244.167 -30.333 -346.5 -91
s-182.166 -145.5 -239.499 -254.5s-86 -231.833 -86 -368.5c0 -213.333 63.833 -383.666 191.5 -510.999s298.5 -191 512.5 -191c68.667 0 133.834 4.33301 195.501 13s108.167 20.334 139.5 35.001v-126c-94.667 -32.667 -207 -49 -337 -49c-258 0 -463 75.333 -615 226
s-228 353.667 -228 609c0 122 20.167 234.833 60.5 338.5s96.5 191.834 168.5 264.501s159.167 129.334 261.5 170.001s214.166 61 335.499 61z" />
    <glyph glyph-name="A" unicode="A" horiz-adv-x="1380" 
d="M1122 0l-145 413h-574l-145 -413h-189l532 1443h178l532 -1443h-189zM682 1210l-226 -644h468l-226 644h-16z" />
    <glyph glyph-name="B" unicode="B" horiz-adv-x="1346" 
d="M747 0h-563.002v1443h552c132 0 236.167 -32.333 312.5 -97s114.5 -152.334 114.5 -263.001c0 -74.667 -24.167 -142 -72.5 -202s-107.166 -96.333 -176.499 -109v-16c98.667 -12.667 177 -50.5 235 -113.5s87 -142.167 87 -237.5
c0 -127.333 -43.167 -226.666 -129.5 -297.999s-206.166 -107 -359.499 -107zM363.998 1284v-463h288c219.333 0 329 77 329 231c0 73.333 -24.833 130.333 -74.5 171s-119.167 61 -208.5 61h-334zM363.998 159l356 0.000976562c108.667 0 191 21.667 247 65
s84 106.666 84 189.999c0 168 -116 252 -348 252h-339v-507z" />
    <glyph glyph-name="C" unicode="C" horiz-adv-x="1466" 
d="M765 -34c-196 0 -351.169 67.668 -465.502 203.001s-171.5 319.333 -171.5 552s57 416.834 171 552.501s269 203.5 465 203.5c152 0 282 -43.333 390 -130s172.667 -199.667 194 -339h-183c-24 93.333 -72 167.166 -144 221.499s-157.667 81.5 -257 81.5
c-138.667 0 -248.5 -53 -329.5 -159s-121.5 -249.667 -121.5 -431s40.667 -324.833 122 -430.5s191.333 -158.5 330 -158.5c100.667 0 186.834 24.167 258.501 72.5s118.834 114.166 141.501 197.499h183c-24 -132.667 -88.833 -238.5 -194.5 -317.5
s-235.167 -118.5 -388.5 -118.5z" />
    <glyph glyph-name="D" unicode="D" horiz-adv-x="1487" 
d="M184 1443h495.001c214 0 381 -63.5 501 -190.5s180 -303.833 180 -530.5c0 -227.333 -59.833 -404.5 -179.5 -531.5s-286.834 -190.5 -501.501 -190.5h-495v1443zM364.001 1281v-1119h303c160.667 0 285.667 49 375 147s134 235 134 411
c0 176.667 -44.833 314.334 -134.5 413.001s-214.5 148 -374.5 148h-303z" />
    <glyph glyph-name="E" unicode="E" horiz-adv-x="1220" 
d="M1078 162v-162h-894v1443h894v-162h-714v-463h677v-160h-677v-496h714z" />
    <glyph glyph-name="F" unicode="F" horiz-adv-x="1172" 
d="M364 0h-180v1443h876v-162h-696v-496h639v-160h-639v-625z" />
    <glyph glyph-name="G" unicode="G" horiz-adv-x="1529" 
d="M1395 558c0 -178 -56.001 -321.168 -168.001 -429.501s-260.333 -162.5 -445 -162.5c-199.333 0 -358.166 68.333 -476.499 205s-177.5 320.334 -177.5 551.001c0 228 59.667 410.833 179 548.5s277.666 206.5 474.999 206.5c160 0 294.167 -41.667 402.5 -125
s175.5 -196.333 201.5 -339h-183c-31.333 97.333 -82.666 171.333 -153.999 222s-160.333 76 -267 76c-142.667 0 -256.5 -53.333 -341.5 -160s-127.5 -249.667 -127.5 -429c0 -182 42.167 -325.833 126.5 -431.5s198.833 -158.5 343.5 -158.5
c129.333 0 233.833 37.667 313.5 113s119.5 174 119.5 296v35h-406v158h585v-176z" />
    <glyph glyph-name="H" unicode="H" horiz-adv-x="1520" 
d="M1336 0h-180v657h-792v-657h-180v1443h180v-624h792v624h180v-1443z" />
    <glyph glyph-name="I" unicode="I" horiz-adv-x="548" 
d="M364 0h-180v1443h180v-1443z" />
    <glyph glyph-name="J" unicode="J" horiz-adv-x="1102" 
d="M86 337h179.001c2 -60.667 24.333 -110 67 -148s97.667 -57 165 -57c77.333 0 136.833 23.167 178.5 69.5s62.5 113.5 62.5 201.5v1040h180v-1041c0 -137.333 -37.333 -244.333 -112 -321s-177.334 -115 -308.001 -115c-121.333 0 -220.333 34.333 -297 103
s-115 158 -115 268z" />
    <glyph glyph-name="K" unicode="K" horiz-adv-x="1349" 
d="M364 0h-180v1443h180v-701h16l632 701h226l-577 -623l630 -820h-233l-521 695l-173 -191v-504z" />
    <glyph glyph-name="L" unicode="L" horiz-adv-x="1163" 
d="M1060 162v-162h-876v1443h180v-1281h696z" />
    <glyph glyph-name="M" unicode="M" horiz-adv-x="1790" 
d="M352 0h-168v1443h209l494 -1194h16l494 1194h209v-1443h-168v1102h-12l-455 -1092h-152l-455 1092h-12v-1102z" />
    <glyph glyph-name="N" unicode="N" horiz-adv-x="1520" 
d="M362 0h-178v1443h175l783 -1123h16v1123h178v-1443h-175l-783 1119h-16v-1119z" />
    <glyph glyph-name="O" unicode="O" horiz-adv-x="1579" 
d="M791 1477c204.667 0 365.834 -67.833 483.501 -203.5s176.5 -319.5 176.5 -551.5s-58.833 -416 -176.5 -552s-278.834 -204 -483.501 -204c-206 0 -368 68 -486 204s-177 320 -177 552s59.5 415.833 178.5 551.5s280.5 203.5 484.5 203.5zM791 1311
c-146.667 0 -263 -53 -349 -159s-129 -249.333 -129 -430s42.5 -324.167 127.5 -430.5s201.833 -159.5 350.5 -159.5c147.333 0 263.333 53.333 348 160s127 250 127 430c0 181.333 -42.333 324.833 -127 430.5s-200.667 158.5 -348 158.5z" />
    <glyph glyph-name="P" unicode="P" horiz-adv-x="1301" 
d="M184 1443h544.999c136.667 0 247.834 -43.5 333.501 -130.5s128.5 -199.167 128.5 -336.5c0 -134.667 -43.5 -245.167 -130.5 -331.5s-198.167 -129.5 -333.5 -129.5h-363v-515h-180v1443zM363.999 1283v-608h318c102.667 0 182.334 26.333 239.001 79s85 126.667 85 222
c0 99.333 -27.833 175.333 -83.5 228s-135.834 79 -240.501 79h-318z" />
    <glyph glyph-name="Q" unicode="Q" horiz-adv-x="1579" 
d="M1378 -163h-202.002l-127 173c-78 -29.333 -164 -44 -258 -44c-205.333 0 -367.166 67.333 -485.499 202s-177.5 319 -177.5 553c0 232.667 59.5 416.834 178.5 552.501s280.5 203.5 484.5 203.5c202.667 0 363.334 -67.833 482.001 -203.5s178 -319.834 178 -552.501
c0 -143.333 -22.167 -269.333 -66.5 -378s-107.5 -192.667 -189.5 -252zM791.998 132c54 0 105.333 7.33301 154 22l-191 259h204l131 -174c56.667 45.333 100.167 109.5 130.5 192.5s45.5 179.5 45.5 289.5c0 181.333 -42.667 325 -128 431s-201 159 -347 159
c-147.333 0 -263.833 -53 -349.5 -159s-128.5 -249.667 -128.5 -431c0 -182 42.833 -325.667 128.5 -431s202.5 -158 350.5 -158z" />
    <glyph glyph-name="R" unicode="R" horiz-adv-x="1338" 
d="M364 1283v-552.002h355c92.667 0 164.167 23.833 214.5 71.5s75.5 115.834 75.5 204.501c0 86.667 -26.333 154.334 -79 203.001s-125.667 73 -219 73h-347zM364 570.998v-571h-180v1443h551c139.333 0 250.833 -39.167 334.5 -117.5s125.5 -182.5 125.5 -312.5
c0 -100.667 -25.667 -187.667 -77 -261s-122.333 -124.333 -213 -153l334 -599h-211l-309 571h-355z" />
    <glyph glyph-name="S" unicode="S" horiz-adv-x="1305" 
d="M115 377h182c11.333 -75.333 50.333 -135.333 117 -180s151.334 -67 254.001 -67c97.333 0 177.833 23.5 241.5 70.5s95.5 106.167 95.5 177.5c0 61.333 -23.333 112.166 -70 152.499s-119.667 73.166 -219 98.499l-185 48c-130.667 32.667 -225.667 80 -285 142
s-89 144.333 -89 247c0 122.667 46.833 221.834 140.5 297.501s216.834 113.5 369.501 113.5c139.333 0 256 -37.333 350 -112s144.667 -170.334 152 -287.001h-181c-12.667 74 -47.834 131.833 -105.501 173.5s-131.5 62.5 -221.5 62.5
c-96 0 -173.167 -22.167 -231.5 -66.5s-87.5 -102.833 -87.5 -175.5c0 -56.667 21.5 -102.667 64.5 -138s114.167 -65.666 213.5 -90.999l151 -40c149.333 -37.333 256.5 -87.333 321.5 -150s97.5 -147 97.5 -253c0 -132.667 -48.667 -238.167 -146 -316.5
s-228.333 -117.5 -393 -117.5c-152.667 0 -277.834 37.333 -375.501 112s-151.167 174.334 -160.5 299.001z" />
    <glyph glyph-name="T" unicode="T" horiz-adv-x="1298" 
d="M739 0h-180v1281h-465v162h1110v-162h-465v-1281z" />
    <glyph glyph-name="U" unicode="U" horiz-adv-x="1524" 
d="M369 1443l-0.00195312 -935c0 -111.333 34.833 -201.833 104.5 -271.5s165.834 -104.5 288.501 -104.5s218.834 34.833 288.501 104.5s104.5 160.167 104.5 271.5v935h180v-947c0 -156.667 -51.5 -284.167 -154.5 -382.5s-242.5 -147.5 -418.5 -147.5
s-315.5 49.167 -418.5 147.5s-154.5 225.833 -154.5 382.5v947h180z" />
    <glyph glyph-name="V" unicode="V" horiz-adv-x="1380" 
d="M779 0h-178l-532 1443h189l424 -1210h16l424 1210h189z" />
    <glyph glyph-name="W" unicode="W" horiz-adv-x="1982" 
d="M985 1139l-332 -1139h-170l-393 1443h188l287 -1173h12l323 1173h182l323 -1173h12l287 1173h188l-393 -1443h-170l-332 1139h-12z" />
    <glyph glyph-name="X" unicode="X" horiz-adv-x="1390" 
d="M90 0l494 726l-488 717h217l380 -574h16l386 574h205l-500 -725l489 -718h-216l-378 569h-16l-385 -569h-204z" />
    <glyph glyph-name="Y" unicode="Y" horiz-adv-x="1344" 
d="M762 0h-180v621l-512 822h205l389 -641h16l389 641h205l-512 -822v-621z" />
    <glyph glyph-name="Z" unicode="Z" horiz-adv-x="1355" 
d="M144 0v128l817 1137v16h-789v162h1022v-128l-813 -1137v-16h830v-162h-1067z" />
    <glyph glyph-name="bracketleft" unicode="[" horiz-adv-x="757" 
d="M179 1444h452v-136h-284v-1413h296v-135h-464v1684z" />
    <glyph glyph-name="backslash" unicode="\" horiz-adv-x="712" 
d="M502 -325l-442 1768h152l440 -1768h-150z" />
    <glyph glyph-name="bracketright" unicode="]" horiz-adv-x="757" 
d="M578 1444v-1684h-464v135h297v1413h-284v136h451z" />
    <glyph glyph-name="asciicircum" unicode="^" horiz-adv-x="984" 
d="M484 1280l-220 -500h-163l296 639h190l296 -639h-163l-220 500h-16z" />
    <glyph glyph-name="underscore" unicode="_" horiz-adv-x="916" 
d="M926 -235h-936v128h936v-128z" />
    <glyph glyph-name="grave" unicode="`" horiz-adv-x="1093" 
d="M782 1263h-194l-278 338h220z" />
    <glyph glyph-name="a" unicode="a" horiz-adv-x="1130" 
d="M494 132c88.667 0 162.167 25.6689 220.5 77.002s87.5 115.666 87.5 192.999v99l-290 -19c-81.333 -5.33301 -141 -22.333 -179 -51s-57 -70.334 -57 -125.001c0 -54 20.333 -96.5 61 -127.5s93 -46.5 157 -46.5zM462 -18.998c-106 0 -193.166 29.168 -261.499 87.501
s-102.5 136.166 -102.5 233.499c0 96 34 171.333 102 226s165 85.667 291 93l311 19v98c0 66.667 -20.667 117.667 -62 153s-102 53 -182 53c-64.667 0 -118.334 -11.667 -161.001 -35s-70 -56.333 -82 -99h-174c11.333 86 55.833 155.333 133.5 208s174.167 79 289.5 79
c130.667 0 231.667 -31.667 303 -95s107 -151.333 107 -264v-738h-164v159h-16c-34.667 -57.333 -80.667 -101.333 -138 -132s-122 -46 -194 -46z" />
    <glyph glyph-name="b" unicode="b" horiz-adv-x="1258" 
d="M698 -19c-74.667 0 -142.5 16.833 -203.5 50.5s-108.5 80.5 -142.5 140.5h-16v-172h-164v1506h172v-598h16c29.333 58 74.5 104 135.5 138s128.5 51 202.5 51c137.333 0 247 -50.667 329 -152s123 -236.666 123 -405.999c0 -168.667 -41.167 -303.834 -123.5 -405.501
s-191.833 -152.5 -328.5 -152.5zM658 942c-98 0 -175.5 -36 -232.5 -108s-85.5 -170.333 -85.5 -295s28.5 -223 85.5 -295s134.5 -108 232.5 -108c98.667 0 175.667 35.667 231 107s83 170 83 296s-27.667 224.667 -83 296s-132.333 107 -231 107z" />
    <glyph glyph-name="c" unicode="c" horiz-adv-x="1146" 
d="M1054 748l-174.001 -0.000976562c-14.667 56.667 -46.167 103.167 -94.5 139.5s-109.5 54.5 -183.5 54.5c-96.667 0 -173.5 -36 -230.5 -108s-85.5 -169 -85.5 -291c0 -124 28.667 -222.833 86 -296.5s134 -110.5 230 -110.5c72.667 0 133.167 16.333 181.5 49
s80.5 79.334 96.5 140.001h174c-16 -102 -63.667 -184.833 -143 -248.5s-182 -95.5 -308 -95.5c-151.333 0 -271.666 50.833 -360.999 152.5s-134 238.167 -134 409.5c0 168 44.667 302.333 134 403s209.333 151 360 151c126 0 228.833 -33 308.5 -99
s127.5 -149.333 143.5 -250z" />
    <glyph glyph-name="d" unicode="d" horiz-adv-x="1258" 
d="M561 -19c-138 0 -247.999 50.668 -329.999 152.001s-123 236.666 -123 405.999c0 168.667 41.167 303.834 123.5 405.501s192.166 152.5 329.499 152.5c75.333 0 142.833 -16.833 202.5 -50.5s104.834 -79.834 135.501 -138.501h15v598h172v-1506h-164v172h-16
c-34 -60 -81.333 -106.833 -142 -140.5s-128.334 -50.5 -203.001 -50.5zM601.001 942.001c-98 0 -175.001 -35.833 -231.001 -107.5s-84 -170.167 -84 -295.5c0 -126 27.833 -224.667 83.5 -296s132.834 -107 231.501 -107c98 0 175.333 36 232 108s85 170.333 85 295
c0 123.333 -28.5 221.333 -85.5 294s-134.167 109 -231.5 109z" />
    <glyph glyph-name="e" unicode="e" horiz-adv-x="1170" 
d="M592 945c-86 0 -156.667 -29 -212 -87s-86.333 -134.667 -93 -230h594c-2 95.333 -29.333 172 -82 230s-121.667 87 -207 87zM876 279l171.999 0.000976562c-26 -93.333 -78.833 -166.333 -158.5 -219s-178.167 -79 -295.5 -79
c-149.333 0 -267.666 50.167 -354.999 150.5s-131 235.833 -131 406.5c0 170 44 305.667 132 407s206 152 354 152c145.333 0 259.666 -48.333 342.999 -145s125 -229 125 -397v-66h-775v-8c4.66699 -106.667 34.834 -191.334 90.501 -254.001s129.167 -94 220.5 -94
c139.333 0 232 48.667 278 146z" />
    <glyph glyph-name="f" unicode="f" horiz-adv-x="741" 
d="M234 0v934h-179v144h179v105c0 108 27.167 187.167 81.5 237.5s134.833 75.5 241.5 75.5c30.667 0 66 -3.33301 106 -10v-144c-27.333 6 -59.333 9 -96 9c-107.333 0 -161 -57.667 -161 -173v-100h247v-144h-247v-934h-172z" />
    <glyph glyph-name="g" unicode="g" horiz-adv-x="1248" 
d="M918 555c0 118 -28.667 211.998 -86 281.998s-135.333 105 -234 105s-175.334 -34.667 -230.001 -104s-82 -163.666 -82 -282.999s27.333 -213.666 82 -282.999s131.334 -104 230.001 -104c99.333 0 177.5 35 234.5 105s85.5 164 85.5 282zM606 -414.002
c-128.667 0 -232.831 26.666 -312.498 79.999s-126.167 125 -139.5 215h182c9.33301 -44.667 37.666 -80 84.999 -106s109 -39 185 -39c96.667 0 172.167 22.5 226.5 67.5s81.5 107.167 81.5 186.5v212h-16c-34 -59.333 -80.333 -105.166 -139 -137.499
s-125 -48.5 -199 -48.5c-138.667 0 -248.667 49.167 -330 147.5s-122 228.833 -122 391.5s41 293.667 123 393s191.667 149 329 149c75.333 0 144 -17.167 206 -51.5s108.667 -80.5 140 -138.5h16v171h164v-1097c0 -120.667 -43.333 -216.667 -130 -288
s-203.334 -107 -350.001 -107z" />
    <glyph glyph-name="h" unicode="h" horiz-adv-x="1216" 
d="M172 0l0.000976562 1506h172v-598h16c27.333 60.667 69.166 107.334 125.499 140.001s125.166 49 206.499 49c114.667 0 205.334 -35.167 272.001 -105.5s100 -168.166 100 -293.499v-698h-172v656c0 190.667 -83 286 -249 286c-94.667 0 -168.167 -27.5 -220.5 -82.5
s-78.5 -128.833 -78.5 -221.5v-638h-172z" />
    <glyph glyph-name="i" unicode="i" horiz-adv-x="504" 
d="M166 0v1078h172v-1078h-172zM252 1297c-33.333 0 -61.666 11.833 -84.999 35.5s-35 51.834 -35 84.501s11.667 60.834 35 84.501s51.666 35.5 84.999 35.5s61.666 -11.833 84.999 -35.5s35 -51.834 35 -84.501s-11.667 -60.834 -35 -84.501s-51.666 -35.5 -84.999 -35.5z
" />
    <glyph glyph-name="j" unicode="j" horiz-adv-x="504" 
d="M338 1078l-0.000976562 -1131c0 -110.667 -26.667 -191.167 -80 -241.5s-136.666 -75.5 -249.999 -75.5h-30v147h26c60 0 102 12.667 126 38s36 68.333 36 129v1134h172zM251.999 1297c-33.333 0 -61.666 11.833 -84.999 35.5s-35 51.834 -35 84.501
s11.667 60.834 35 84.501s51.666 35.5 84.999 35.5s61.666 -11.833 84.999 -35.5s35 -51.834 35 -84.501s-11.667 -60.834 -35 -84.501s-51.666 -35.5 -84.999 -35.5z" />
    <glyph glyph-name="k" unicode="k" horiz-adv-x="1112" 
d="M360 607l468 471h211l-464 -462l495 -616h-219l-404 505l-103 -96v-409h-172v1506h172v-899h16z" />
    <glyph glyph-name="l" unicode="l" horiz-adv-x="516" 
d="M172 0v1506h172v-1506h-172z" />
    <glyph glyph-name="m" unicode="m" horiz-adv-x="1782" 
d="M162 0v1078h164v-170h16c24.667 60 63 106.5 115 139.5s114 49.5 186 49.5c70.667 0 131.5 -17 182.5 -51s89.5 -80 115.5 -138h16c29.333 58 73.333 104 132 138s124.667 51 198 51c110 0 194.667 -30.5 254 -91.5s89 -147.833 89 -260.5v-745h-172v705
c0 158 -75.667 237 -227 237c-73.333 0 -133.333 -24 -180 -72s-70 -107 -70 -177v-693h-172v732c0 64 -20.5 115 -61.5 153s-95.5 57 -163.5 57c-70 0 -129.167 -26.667 -177.5 -80s-72.5 -118 -72.5 -194v-668h-172z" />
    <glyph glyph-name="n" unicode="n" horiz-adv-x="1195" 
d="M162 0v1078h164v-170h16c57.333 126 165.333 189 324 189c120.667 0 213.667 -34.5 279 -103.5s98 -167.5 98 -295.5v-698h-172v656c0 96.667 -20.833 168.5 -62.5 215.5s-105.5 70.5 -191.5 70.5c-86.667 0 -155.5 -27.167 -206.5 -81.5s-76.5 -128.5 -76.5 -222.5v-638
h-172z" />
    <glyph glyph-name="o" unicode="o" horiz-adv-x="1210" 
d="M605 136c102 0 180.667 35.167 236 105.5s83 169.5 83 297.5s-27.667 227.167 -83 297.5s-134 105.5 -236 105.5s-180.667 -35.167 -236 -105.5s-83 -169.5 -83 -297.5s27.667 -227.167 83 -297.5s134 -105.5 236 -105.5zM605 -19c-153.333 0 -274.5 49.833 -363.5 149.5
s-133.5 235.834 -133.5 408.501c0 173.333 44.333 309.666 133 408.999s210 149 364 149s275.333 -49.667 364 -149s133 -235.666 133 -408.999c0 -172.667 -44.5 -308.834 -133.5 -408.501s-210.167 -149.5 -363.5 -149.5z" />
    <glyph glyph-name="p" unicode="p" horiz-adv-x="1248" 
d="M687 1097c137.333 0 247.167 -50.667 329.5 -152s123.5 -236.666 123.5 -405.999c0 -168.667 -41.333 -303.834 -124 -405.501s-192.334 -152.5 -329.001 -152.5c-76.667 0 -144.667 15.833 -204 47.5s-103.666 76.167 -132.999 133.5h-16v-522h-172v1438h164v-180h16
c34.667 62 82.5 110.667 143.5 146s128.167 53 201.5 53zM646.001 136c98.667 0 176 35.667 232 107s84 170 84 296s-27.833 224.667 -83.5 296s-132.834 107 -231.501 107c-97.333 0 -174.666 -36.167 -231.999 -108.5s-86 -170.5 -86 -294.5
c0 -123.333 28.5 -221.333 85.5 -294s134.167 -109 231.5 -109z" />
    <glyph glyph-name="q" unicode="q" horiz-adv-x="1248" 
d="M559 1097c73.333 0 141.167 -18.001 203.5 -54.001s109.5 -84.333 141.5 -145h16v180h166v-1438h-174v522h-16c-70.667 -120.667 -183 -181 -337 -181c-137.333 0 -246.833 50.5 -328.5 151.5s-122.5 236.5 -122.5 406.5c0 168.667 41 303.834 123 405.501
s191.333 152.5 328 152.5zM598.001 135.999c98.667 0 176.499 36.167 233.499 108.5s85.5 170.5 85.5 294.5c0 123.333 -28.667 221.333 -86 294s-134.666 109 -231.999 109c-98 0 -174.667 -35.667 -230 -107s-83 -170 -83 -296c0 -126.667 27.5 -225.5 82.5 -296.5
s131.5 -106.5 229.5 -106.5z" />
    <glyph glyph-name="r" unicode="r" horiz-adv-x="780" 
d="M162 0l-0.000976562 1078h164v-160h16c16 52.667 52 95.667 108 129s119.667 50 191 50c32.667 0 61.334 -1.66699 86.001 -5v-172c-23.333 6.66699 -60 10 -110 10c-82 0 -149.667 -24.667 -203 -74s-80 -112 -80 -188v-668h-172z" />
    <glyph glyph-name="s" unicode="s" horiz-adv-x="1072" 
d="M137 783c0 89.333 38.334 164.004 115.001 224.004s172.334 90 287.001 90c112.667 0 205.667 -26 279 -78s115.666 -122.333 126.999 -211h-170c-12 44 -38.5 78.833 -79.5 104.5s-93.5 38.5 -157.5 38.5c-64.667 0 -118.834 -15 -162.501 -45s-65.5 -68.667 -65.5 -116
c0 -36.667 15.167 -67.167 45.5 -91.5s77.5 -44.166 141.5 -59.499l166 -40c102.667 -24.667 178.5 -60.334 227.5 -107.001s73.5 -108.334 73.5 -185.001c0 -95.333 -41 -173.5 -123 -234.5s-185 -91.5 -309 -91.5c-120 0 -218.333 26.667 -295 80
s-119.667 124.666 -129 213.999h177c14.667 -46.667 43.667 -83.167 87 -109.5s98.666 -39.5 165.999 -39.5c72.667 0 132.334 15.667 179.001 47s70 71.666 70 120.999c0 73.333 -57 124 -171 152l-185 45c-102 24.667 -176.5 60.167 -223.5 106.5
s-70.5 108.166 -70.5 185.499z" />
    <glyph glyph-name="t" unicode="t" horiz-adv-x="744" 
d="M234 1357l171.999 -0.000976562v-279h240v-144h-240v-610c0 -63.333 12.667 -109.333 38 -138s66 -43 122 -43c24.667 0 51.334 1.33301 80.001 4v-145c-38 -6.66699 -71.667 -10 -101 -10c-111.333 0 -191 22.333 -239 67s-72 118.334 -72 221.001v654h-174v144h174v279
z" />
    <glyph glyph-name="u" unicode="u" horiz-adv-x="1196" 
d="M1034 1078v-1078h-164v169h-16c-27.333 -60.667 -69.333 -107.167 -126 -139.5s-126 -48.5 -208 -48.5c-120 0 -211.333 34.333 -274 103s-94 167.334 -94 296.001v698h172v-656c0 -98 19.333 -169.833 58 -215.5s100.667 -68.5 186 -68.5c94 0 166.5 26.5 217.5 79.5
s76.5 127.167 76.5 222.5v638h172z" />
    <glyph glyph-name="v" unicode="v" horiz-adv-x="1110" 
d="M68 1078h184l295 -888h16l295 888h184l-399 -1078h-176z" />
    <glyph glyph-name="w" unicode="w" horiz-adv-x="1586" 
d="M1518 1078l-302 -1078h-175l-241 834h-16l-240 -834h-174l-302 1078h174l212 -862h16l241 862h165l241 -862h16l212 862h173z" />
    <glyph glyph-name="x" unicode="x" horiz-adv-x="1076" 
d="M544 407h-16l-256 -407h-195l369 539l-373 539h205l256 -401h16l253 401h195l-366 -532l371 -546h-204z" />
    <glyph glyph-name="y" unicode="y" horiz-adv-x="1112" 
d="M254 -390c-27.333 0 -53.001 2 -77.001 6v147c17.333 -3.33301 41.333 -5 72 -5c50 0 89.833 13.333 119.5 40s55.834 72.334 78.501 137.001l20 64l-399 1079h186l296 -887h16l295 887h183l-421 -1144c-46 -124.667 -95 -209.834 -147 -255.501s-126 -68.5 -222 -68.5z
" />
    <glyph glyph-name="z" unicode="z" horiz-adv-x="1104" 
d="M137 0v126l622 792v16h-621v144h826v-129l-619 -789v-16h622v-144h-830z" />
    <glyph glyph-name="braceleft" unicode="{" horiz-adv-x="824" 
d="M287 606c119.333 -11.333 179 -91.665 179 -240.998v-334c0 -79.333 18.167 -136.5 54.5 -171.5s96.166 -52.5 179.499 -52.5h45v-141h-60c-129.333 0 -225.5 29 -288.5 87s-94.5 146.667 -94.5 266v289c0 78.667 -13 133.5 -39 164.5s-72.333 46.5 -139 46.5v191
c66.667 0 113 15.667 139 47s39 86.666 39 165.999v255c0 116.667 31.333 203.167 94 259.5s159 84.5 289 84.5h60v-141h-45c-83.333 0 -143.166 -17.333 -179.499 -52s-54.5 -92.334 -54.5 -173.001v-296c0 -146.667 -59.667 -226 -179 -238v-16z" />
    <glyph glyph-name="bar" unicode="|" horiz-adv-x="676" 
d="M412 -326h-148v1769h148v-1769z" />
    <glyph glyph-name="braceright" unicode="}" horiz-adv-x="824" 
d="M537 606v15.999c-119.333 12 -179 91.333 -179 238v296c0 80.667 -18.167 138.334 -54.5 173.001s-96.166 52 -179.499 52h-45v141h60c130 0 226.333 -28.167 289 -84.5s94 -142.833 94 -259.5v-255c0 -79.333 13 -134.666 39 -165.999s72.333 -47 139 -47v-191
c-66.667 0 -113 -15.5 -139 -46.5s-39 -85.833 -39 -164.5v-289c0 -119.333 -31.5 -208 -94.5 -266s-159.167 -87 -288.5 -87h-60v141h45c83.333 0 143.166 17.5 179.499 52.5s54.5 92.167 54.5 171.5v334c0 149.333 59.667 229.666 179 240.999z" />
    <glyph glyph-name="asciitilde" unicode="~" horiz-adv-x="1202" 
d="M557 636c-36.667 37.333 -66.832 63.5 -90.499 78.5s-46.834 22.5 -69.501 22.5c-86.667 0 -133.667 -59.667 -141 -179h-160c-0.666992 106.667 26.333 190.667 81 252s129.334 92 224.001 92c42.667 0 83.5 -10 122.5 -30s80.167 -51.667 123.5 -95
c34.667 -36.667 64 -62.5 88 -77.5s47.333 -22.5 70 -22.5c87.333 0 134.666 59.667 141.999 179h159c0.666992 -106.667 -26.166 -190.667 -80.499 -252s-128.833 -92 -223.5 -92c-42.667 0 -83.334 9.83301 -122.001 29.5s-79.667 51.167 -123 94.5z" />
    <glyph glyph-name="nonbreakingspace" unicode="&#xa0;" horiz-adv-x="578" 
 />
    <glyph glyph-name="exclamdown" unicode="&#xa1;" horiz-adv-x="637" 
d="M218 -342l17 964h166l17 -964h-200zM180 981c0 40.667 13 74 39 100s59.333 39 100 39s73.834 -13 99.501 -39s38.5 -59.333 38.5 -100c0 -41.333 -12.833 -75 -38.5 -101s-58.834 -39 -99.501 -39s-74 13.167 -100 39.5s-39 59.833 -39 100.5z" />
    <glyph glyph-name="cent" unicode="&#xa2;" horiz-adv-x="1328" 
d="M1167 508c-14.667 -93.333 -57.833 -170.002 -129.5 -230.002s-161.5 -96.333 -269.5 -109v-169h-172v171c-130 20 -235 79.5 -315 178.5s-120 224.167 -120 375.5c0 149.333 40 273 120 371s185 156.667 315 176v171h172v-169c106 -14 195.5 -51.833 268.5 -113.5
s116.5 -138.5 130.5 -230.5h-174c-20.667 61.333 -58 109 -112 143s-119.333 51 -196 51c-99.333 0 -181.833 -36.667 -247.5 -110s-98.5 -169.666 -98.5 -288.999c0 -121.333 33 -219.333 99 -294s148.333 -112 247 -112c84 0 152.333 16.333 205 49s87 79.334 103 140.001
h174z" />
    <glyph glyph-name="sterling" unicode="&#xa3;" horiz-adv-x="1328" 
d="M1190 154l-0.000976562 -154.003h-1062v152c88.667 20 162.167 63.167 220.5 129.5s87.5 139.5 87.5 219.5c0 48 -7.33301 98.667 -22 152h-286v144h236c-14 35.333 -24.667 63.833 -32 85.5s-14.333 49.167 -21 82.5s-10 65 -10 95
c0 130.667 45.833 232.834 137.5 306.501s218.167 110.5 379.5 110.5c105.333 0 205.333 -14.333 300 -43v-160c-88 29.333 -185 44 -291 44c-107.333 0 -191.166 -22.5 -251.499 -67.5s-90.5 -107.167 -90.5 -186.5c0 -74 19.667 -163 59 -267h472v-144h-423
c13.333 -50 20 -98.333 20 -145c0 -67.333 -17.333 -131.166 -52 -191.499s-82 -109.166 -142 -146.499v-16h771z" />
    <glyph glyph-name="currency" unicode="&#xa4;" horiz-adv-x="1328" 
d="M401 656c0 -72.667 25.833 -134.834 77.5 -186.501s113.834 -77.5 186.501 -77.5s134.834 25.833 186.501 77.5s77.5 113.834 77.5 186.501s-25.833 134.834 -77.5 186.501s-113.834 77.5 -186.501 77.5s-134.834 -25.833 -186.501 -77.5s-77.5 -113.834 -77.5 -186.501z
M1157 1043l-168 -169.001c44.667 -66 67 -138.667 67 -218c0 -80.667 -22.667 -153.667 -68 -219l169 -169l-106 -106l-169 169c-64.667 -44 -137 -66 -217 -66c-79.333 0 -152.333 22.333 -219 67l-169 -170l-106 106l170 170c-44.667 66.667 -67 139.334 -67 218.001
s22.333 151 67 217l-170 170l106 106l169 -169c67.333 44.667 140.333 67 219 67c79.333 0 152 -22.333 218 -67l168 169z" />
    <glyph glyph-name="yen" unicode="&#xa5;" horiz-adv-x="1328" 
d="M1031 269h-277v-269h-180v269h-277v136h277v166h-277v136h223l-458 736h205l389 -641h16l389 641h205l-458 -736h223v-136h-277v-166h277v-136z" />
    <glyph glyph-name="brokenbar" unicode="&#xa6;" horiz-adv-x="676" 
d="M412 774h-148v669h148v-669zM412 -326h-148v669h148v-669z" />
    <glyph glyph-name="section" unicode="&#xa7;" horiz-adv-x="1032" 
d="M451 400l83 -18c61.333 0 113 18.333 155 55s63 82 63 136c0 42 -14.667 77.333 -44 106s-71.333 49 -126 61l-83 18c-60.667 0 -112.334 -18.667 -155.001 -56s-64 -82.333 -64 -135c0 -41.333 14.833 -76.5 44.5 -105.5s71.834 -49.5 126.501 -61.5zM521 -257
c-114.667 0 -209.835 27.6699 -285.502 83.0029s-116.834 127.333 -123.501 216h176c6.66699 -46 32.334 -83 77.001 -111s99.667 -42 165 -42c68 0 123.167 14.667 165.5 44s63.5 67.333 63.5 114c0 37.333 -15.667 68.666 -47 93.999s-81.666 47.333 -150.999 66l-141 38
c-109.333 29.333 -189.5 67.166 -240.5 113.499s-76.5 104.5 -76.5 174.5c0 63.333 19.5 118 58.5 164s93.833 78.667 164.5 98v16c-146 56.667 -219 147.667 -219 273c0 93.333 37 168.833 111 226.5s170.667 86.5 290 86.5c111.333 0 202.666 -26 273.999 -78
s112.666 -122.333 123.999 -211h-173c-7.33301 43.333 -31.666 78 -72.999 104s-93.333 39 -156 39c-67.333 0 -121.5 -14.5 -162.5 -43.5s-61.5 -66.833 -61.5 -113.5c0 -38 15.333 -69.667 46 -95s80.334 -47.333 149.001 -66l141 -38
c108 -28.667 187.167 -65.667 237.5 -111s75.5 -101.666 75.5 -168.999c0 -68.667 -23.667 -129.334 -71 -182.001s-108.333 -86.334 -183 -101.001v-16c169.333 -38 254 -123.667 254 -257c0 -92.667 -38.167 -168.5 -114.5 -227.5s-174.166 -88.5 -293.499 -88.5z" />
    <glyph glyph-name="dieresis" unicode="&#xa8;" horiz-adv-x="1092" 
d="M344 1263c-33.333 0 -61.833 11.833 -85.5 35.5s-35.5 52.167 -35.5 85.5s11.833 61.833 35.5 85.5s52.167 35.5 85.5 35.5s61.833 -11.833 85.5 -35.5s35.5 -52.167 35.5 -85.5s-11.833 -61.833 -35.5 -85.5s-52.167 -35.5 -85.5 -35.5zM748 1263
c-33.333 0 -61.833 11.833 -85.5 35.5s-35.5 52.167 -35.5 85.5s11.833 61.833 35.5 85.5s52.167 35.5 85.5 35.5s61.833 -11.833 85.5 -35.5s35.5 -52.167 35.5 -85.5s-11.833 -61.833 -35.5 -85.5s-52.167 -35.5 -85.5 -35.5z" />
    <glyph glyph-name="copyright" unicode="&#xa9;" horiz-adv-x="1742" 
d="M871 -168c-110 0 -214.167 20.499 -312.5 61.499s-182.5 96.667 -252.5 167s-125.5 154.5 -166.5 252.5s-61.5 202.333 -61.5 313c0 148 34.667 282.667 104 404s164.666 216.666 285.999 285.999s255.666 104 402.999 104c110.667 0 215.167 -20.333 313.5 -61
s182.5 -96.167 252.5 -166.5s125.333 -154.666 166 -252.999s61 -202.833 61 -313.5c0 -148 -34.667 -282.667 -104 -404s-164.666 -216.666 -285.999 -285.999s-255.666 -104 -402.999 -104zM871 -28.001c91.333 0 177.331 16.833 257.998 50.5
s149.834 79.334 207.501 137.001s103.167 127 136.5 208s50 167.167 50 258.5c0 122 -28.333 233 -85 333s-134.834 178.5 -234.501 235.5s-210.5 85.5 -332.5 85.5c-91.333 0 -177.333 -16.833 -258 -50.5s-149.834 -79.334 -207.501 -137.001s-103.167 -127 -136.5 -208
s-50 -167.167 -50 -258.5s16.833 -177.333 50.5 -258s79.334 -150 137.001 -208s126.834 -103.833 207.501 -137.5s166.334 -50.5 257.001 -50.5zM1249 767.999l-139.001 0.000976562c-12 47.333 -38.167 85.166 -78.5 113.499s-88.166 42.5 -143.499 42.5
c-77.333 0 -138.833 -26.667 -184.5 -80s-68.5 -125.333 -68.5 -216c0 -92 22.833 -165 68.5 -219s107.167 -81 184.5 -81c58.667 0 107.334 13.167 146.001 39.5s64 63.5 76 111.5h139c-12.667 -84 -51.5 -150.833 -116.5 -200.5s-146.167 -74.5 -243.5 -74.5
c-120.667 0 -216.834 38.333 -288.501 115s-107.5 179.667 -107.5 309c0 128 35.667 230 107 306s167.333 114 288 114c95.333 0 176 -25.667 242 -77s105.667 -119 119 -203z" />
    <glyph glyph-name="ordfeminine" unicode="&#xaa;" horiz-adv-x="942" 
d="M438 652c68.667 0 125.833 20.833 171.5 62.5s68.5 93.167 68.5 154.5v96l-227 -17c-62.667 -4 -110.167 -18.5 -142.5 -43.5s-48.5 -59.833 -48.5 -104.5s16.167 -80.5 48.5 -107.5s75.5 -40.5 129.5 -40.5zM389.999 515c-89.333 0 -161.5 25.667 -216.5 77
s-82.5 118.666 -82.5 201.999c0 82 29.167 146.667 87.5 194s142.166 74.333 251.499 81l245 15v80c0 50 -17.333 88.667 -52 116s-83.667 41 -147 41c-50 0 -91.667 -9.83301 -125 -29.5s-53.333 -46.5 -60 -80.5h-165c7.33301 76.667 43.333 137.834 108 183.501
s147.334 68.5 248.001 68.5c111.333 0 198.333 -27 261 -81s94 -128.667 94 -224v-618h-155v119h-16c-26.667 -46 -64 -81.5 -112 -106.5s-102.667 -37.5 -164 -37.5z" />
    <glyph glyph-name="guillemotleft" unicode="&#xab;" horiz-adv-x="1391" 
d="M861 573v-16l351 -412h-205l-350 416v8l351 416h204zM382 573v-16l351 -412h-204l-350 416v8l350 416h204z" />
    <glyph glyph-name="logicalnot" unicode="&#xac;" horiz-adv-x="1328" 
d="M1138 654v-528h-148v380h-800v148h948z" />
    <glyph glyph-name="registered" unicode="&#xae;" horiz-adv-x="1260" 
d="M630 449c-145.333 0 -268.665 50.666 -369.998 151.999s-152 224.666 -152 369.999c0 96 23.167 184 69.5 264s109.5 143 189.5 189s167.667 69 263 69c72 0 140.167 -13.667 204.5 -41s119.666 -64.166 165.999 -110.499s83.166 -101.666 110.499 -165.999
s41 -132.5 41 -204.5c0 -95.333 -23 -183 -69 -263s-109 -143.167 -189 -189.5s-168 -69.5 -264 -69.5zM630.001 552.999c116.667 0 215.5 40.5 296.5 121.5s121.5 179.833 121.5 296.5s-40.333 215.5 -121 296.5s-179.667 121.5 -297 121.5
c-116.667 0 -215.5 -40.5 -296.5 -121.5s-121.5 -179.833 -121.5 -296.5s40.5 -215.5 121.5 -296.5s179.833 -121.5 296.5 -121.5zM527.001 732.999h-98v499h249c50 0 91.5 -14.5 124.5 -43.5s49.5 -65.5 49.5 -109.5c0 -81.333 -38.667 -131.333 -116 -150l138 -196h-120
l-129 183h-98v-183zM527.001 1143v-143h124c61.333 0 92 24.667 92 74c0 46 -29.667 69 -89 69h-127z" />
    <glyph glyph-name="macron" unicode="&#xaf;" horiz-adv-x="1048" 
d="M861 1286h-674v136h674v-136z" />
    <glyph glyph-name="degree" unicode="&#xb0;" horiz-adv-x="901" 
d="M450 813c-93.333 0 -170.666 31.333 -231.999 94s-92 139.667 -92 231s30.667 168.333 92 231s138.666 94 231.999 94s170.833 -31.5 232.5 -94.5s92.5 -139.833 92.5 -230.5s-30.833 -167.5 -92.5 -230.5s-139.167 -94.5 -232.5 -94.5zM450 941
c59.333 0 107.333 19 144 57s55 84.667 55 140c0 56 -18.5 102.833 -55.5 140.5s-84.833 56.5 -143.5 56.5s-106.167 -18.833 -142.5 -56.5s-54.5 -84.5 -54.5 -140.5c0 -55.333 18.167 -102 54.5 -140s83.833 -57 142.5 -57z" />
    <glyph glyph-name="plusminus" unicode="&#xb1;" horiz-adv-x="1328" 
d="M1173 112h-1018v148h1018v-148zM738 662v-291h-148v291h-435v136h435v291h148v-291h435v-136h-435z" />
    <glyph glyph-name="two.sups" unicode="&#xb2;" horiz-adv-x="825" 
d="M95 1539c0 84 29.167 152.669 87.5 206.002s133.833 80 226.5 80c90 0 163.833 -24.333 221.5 -73s86.5 -111 86.5 -187c0 -46.667 -14.167 -93.334 -42.5 -140.001s-81.833 -109.334 -160.5 -188.001l-185 -186v-16h401v-135h-627v110l301 310
c60.667 61.333 101.334 107.833 122.001 139.5s31 63.834 31 96.501c0 40 -14.333 73.167 -43 99.5s-65.334 39.5 -110.001 39.5c-46.667 0 -84.5 -14.333 -113.5 -43s-43.5 -66.334 -43.5 -113.001v-2h-152v2z" />
    <glyph glyph-name="three.sups" unicode="&#xb3;" horiz-adv-x="853" 
d="M311 1300l0.000976562 121.999h109c46 0 83.333 12.833 112 38.5s43 58.834 43 99.501s-14 73 -42 97s-65.667 36 -113 36c-46 0 -83.5 -12.5 -112.5 -37.5s-45.167 -58.833 -48.5 -101.5h-151c3.33301 82.667 33.5 148.167 90.5 196.5s132.5 72.5 226.5 72.5
c88 0 161.167 -22.833 219.5 -68.5s87.5 -103.167 87.5 -172.5c0 -51.333 -15.167 -95.833 -45.5 -133.5s-70.5 -61.834 -120.5 -72.501v-16c61.333 -4.66699 110.333 -26.667 147 -66s55 -89 55 -149c0 -77.333 -32.333 -141.666 -97 -192.999s-146.334 -77 -245.001 -77
c-97.333 0 -176.833 24.833 -238.5 74.5s-94.167 115.5 -97.5 197.5h156c3.33301 -42 21.333 -75.5 54 -100.5s75 -37.5 127 -37.5c51.333 0 93.333 13.5 126 40.5s49 61.833 49 104.5c0 45.333 -16 81 -48 107s-75.667 39 -131 39h-112z" />
    <glyph glyph-name="acute" unicode="&#xb4;" horiz-adv-x="1093" 
d="M286 1263l252 338h220l-278 -338h-194z" />
    <glyph glyph-name="mugreek" unicode="&#xb5;" horiz-adv-x="1258" 
d="M162 -360v1438h172v-654c0 -190.667 81.333 -286 244 -286c86.667 0 155.667 27 207 81s77 127.667 77 221v638h172v-809c0 -48.667 7.33301 -82.167 22 -100.5s40.667 -27.5 78 -27.5c16.667 0 33 1.33301 49 4v-145c-24.667 -6.66699 -52 -10 -82 -10
c-74 0 -128 12.5 -162 37.5s-56.333 68.5 -67 130.5l-2 12h-16c-28.667 -64 -65.5 -111.5 -110.5 -142.5s-102.833 -46.5 -173.5 -46.5c-106.667 0 -180 43 -220 129h-16v-470h-172z" />
    <glyph glyph-name="mugreek" unicode="&#x3bc;" horiz-adv-x="1258" 
d="M162 -360v1438h172v-654c0 -190.667 81.333 -286 244 -286c86.667 0 155.667 27 207 81s77 127.667 77 221v638h172v-809c0 -48.667 7.33301 -82.167 22 -100.5s40.667 -27.5 78 -27.5c16.667 0 33 1.33301 49 4v-145c-24.667 -6.66699 -52 -10 -82 -10
c-74 0 -128 12.5 -162 37.5s-56.333 68.5 -67 130.5l-2 12h-16c-28.667 -64 -65.5 -111.5 -110.5 -142.5s-102.833 -46.5 -173.5 -46.5c-106.667 0 -180 43 -220 129h-16v-470h-172z" />
    <glyph glyph-name="paragraph" unicode="&#xb6;" horiz-adv-x="1321" 
d="M834 -220l-179.999 0.000976562v795h-20c-134.667 0 -247.334 40.5 -338.001 121.5s-136 182.833 -136 305.5c0 127.333 45.5 232.666 136.5 315.999s203.833 125 338.5 125h199v-1663zM981.001 -219.999v1663h180v-1663h-180z" />
    <glyph glyph-name="periodcentered" unicode="&#xb7;" horiz-adv-x="630" 
d="M316 597c-41.333 0 -75.333 13.333 -102 40s-40 60.667 -40 102s13.333 75.333 40 102s60.667 40 102 40c40.667 0 74.167 -13.333 100.5 -40s39.5 -60.667 39.5 -102s-13.167 -75.333 -39.5 -102s-59.833 -40 -100.5 -40z" />
    <glyph glyph-name="cedilla" unicode="&#xb8;" horiz-adv-x="1093" 
d="M394 -244l0.000976562 84.001l63 160h134l-55 -142c68 0 120.833 -14.333 158.5 -43s56.5 -68.667 56.5 -120c0 -56.667 -21.833 -102.334 -65.5 -137.001s-103.167 -52 -178.5 -52c-56.667 0 -105.334 6 -146.001 18v108c32 -9.33301 72.667 -14 122 -14
c79.333 0 119 24.333 119 73c0 23.333 -11.667 40 -35 50s-61.333 15 -114 15h-59z" />
    <glyph glyph-name="one.sups" unicode="&#xb9;" horiz-adv-x="664" 
d="M477 900h-156v742h-16c-9.33301 -6 -48 -33.5 -116 -82.5s-102.667 -74.167 -104 -75.5v152c58 43.333 136.667 99 236 167h156v-903z" />
    <glyph glyph-name="ordmasculine" unicode="&#xba;" horiz-adv-x="1024" 
d="M512 659c79.333 0 141 28.835 185 86.502s66 138.834 66 243.501c0 105.333 -21.833 186.666 -65.5 243.999s-105.5 86 -185.5 86c-79.333 0 -140.833 -28.833 -184.5 -86.5s-65.5 -138.834 -65.5 -243.501s21.833 -185.834 65.5 -243.501s105.167 -86.5 184.5 -86.5z
M512 515.002c-131.333 0 -234.833 42.165 -310.5 126.498s-113.5 200.166 -113.5 347.499c0 146.667 37.833 262.334 113.5 347.001s179.167 127 310.5 127s234.833 -42.167 310.5 -126.5s113.5 -200.166 113.5 -347.499s-37.833 -263.166 -113.5 -347.499
s-179.167 -126.5 -310.5 -126.5z" />
    <glyph glyph-name="guillemotright" unicode="&#xbb;" horiz-adv-x="1391" 
d="M530 573l-351 412h204l351 -416v-8l-350 -416h-205l351 412v16zM1009 573l-351 412h204l350 -416v-8l-350 -416h-204l351 412v16z" />
    <glyph glyph-name="onequarter" unicode="&#xbc;" horiz-adv-x="1944" 
d="M477 540h-156v742h-16c-9.33301 -6 -48 -33.5 -116 -82.5s-102.667 -74.167 -104 -75.5v152c58 43.333 136.667 99 236 167h156v-903zM504 0l335 758l302 685h167l-318 -721l-319 -722h-167zM1513 903h230v-600h121v-133h-121v-170h-156v170h-452v141
c30.667 56.667 71.5 124.667 122.5 204zM1285 307l-0.000976562 -8h304v477h-6c-135.333 -200 -234.666 -356.333 -297.999 -469z" />
    <glyph glyph-name="onehalf" unicode="&#xbd;" horiz-adv-x="1949" 
d="M1219 639c0 84 29.167 152.669 87.5 206.002s133.833 80 226.5 80c90 0 163.833 -24.333 221.5 -73s86.5 -111 86.5 -187c0 -46.667 -14.167 -93.334 -42.5 -140.001s-81.833 -109.334 -160.5 -188.001l-185 -186v-16h401v-135h-627v110l301 310
c60.667 61.333 101.334 107.833 122.001 139.5s31 63.834 31 96.501c0 40 -14.333 73.167 -43 99.5s-65.334 39.5 -110.001 39.5c-46.667 0 -84.5 -14.333 -113.5 -43s-43.5 -66.334 -43.5 -113.001v-2h-152v2zM477 540.002h-156v742h-16c-9.33301 -6 -48 -33.5 -116 -82.5
s-102.667 -74.167 -104 -75.5v152c58 43.333 136.667 99 236 167h156v-903zM504 0.00195312l335 758l302 685h167l-318 -721l-319 -722h-167z" />
    <glyph glyph-name="threequarters" unicode="&#xbe;" horiz-adv-x="2134" 
d="M694 0l335 758l302 685h167l-318 -721l-319 -722h-167zM1703 903h230v-600h121v-133h-121v-170h-156v170h-452v141c51.333 94 177.333 291.333 378 592zM1475 307l-0.000976562 -8h304v477h-6c-135.333 -200 -234.666 -356.333 -297.999 -469zM310.999 940
l0.000976562 121.999h109c46 0 83.333 12.833 112 38.5s43 58.834 43 99.501s-14 73 -42 97s-65.667 36 -113 36c-46 0 -83.5 -12.5 -112.5 -37.5s-45.167 -58.833 -48.5 -101.5h-151c3.33301 82.667 33.5 148.167 90.5 196.5s132.5 72.5 226.5 72.5
c88 0 161.167 -22.833 219.5 -68.5s87.5 -103.167 87.5 -172.5c0 -51.333 -15.167 -95.833 -45.5 -133.5s-70.5 -61.834 -120.5 -72.501v-16c61.333 -4.66699 110.333 -26.667 147 -66s55 -89 55 -149c0 -77.333 -32.333 -141.666 -97 -192.999s-146.334 -77 -245.001 -77
c-97.333 0 -176.833 24.833 -238.5 74.5s-94.167 115.5 -97.5 197.5h156c3.33301 -42 21.333 -75.5 54 -100.5s75 -37.5 127 -37.5c51.333 0 93.333 13.5 126 40.5s49 61.833 49 104.5c0 45.333 -16 81 -48 107s-75.667 39 -131 39h-112z" />
    <glyph glyph-name="questiondown" unicode="&#xbf;" horiz-adv-x="1050" 
d="M970 35c-5.33301 -114 -45.6689 -207.331 -121.002 -279.998s-180 -109 -314 -109c-125.333 0 -227.5 34.333 -306.5 103s-118.5 155.667 -118.5 261c0 144 69.667 258.333 209 343c62.667 37.333 105.334 72.666 128.001 105.999s34 76.666 34 129.999v65h175v-92
c0.666992 -65.333 -14.833 -121.833 -46.5 -169.5s-82.5 -92.5 -152.5 -134.5c-58 -36 -99.333 -71.833 -124 -107.5s-37 -79.5 -37 -131.5c0 -64 22.5 -116.167 67.5 -156.5s104.5 -60.5 178.5 -60.5c74.667 0 134.834 20.833 180.501 62.5s71.167 98.5 76.5 170.5h171z
M556.997 840.002c-40.667 0 -73.999 13 -99.999 39s-39 59.333 -39 100c0 40 13.167 73.333 39.5 100s59.5 40 99.5 40s73 -13.333 99 -40s39 -60 39 -100c0 -40.667 -12.833 -74 -38.5 -100s-58.834 -39 -99.501 -39z" />
    <glyph glyph-name="Agrave" unicode="&#xc0;" horiz-adv-x="1380" 
d="M1122 0l-145 413h-574l-145 -413h-189l532 1443h178l532 -1443h-189zM682 1210l-226 -644h468l-226 644h-16zM478 1873l310 -298h-204l-332 298h226z" />
    <glyph glyph-name="Aacute" unicode="&#xc1;" horiz-adv-x="1380" 
d="M1122 0l-145 413h-574l-145 -413h-189l532 1443h178l532 -1443h-189zM682 1210l-226 -644h468l-226 644h-16zM584 1575l310 298h226l-332 -298h-204z" />
    <glyph glyph-name="Acircumflex" unicode="&#xc2;" horiz-adv-x="1380" 
d="M1122 0l-145 413h-574l-145 -413h-189l532 1443h178l532 -1443h-189zM682 1210l-226 -644h468l-226 644h-16zM772 1873l300 -298h-202l-172 177h-16l-172 -177h-202l300 298h164z" />
    <glyph glyph-name="Atilde" unicode="&#xc3;" horiz-adv-x="1380" 
d="M1122 0l-145 413h-574l-145 -413h-189l532 1443h178l532 -1443h-189zM682 1210l-226 -644h468l-226 644h-16zM840 1575c-30 0 -57.498 5.83301 -82.498 17.5s-45.833 25.667 -62.5 42s-32.5 32.666 -47.5 48.999s-31.333 30.333 -49 42s-35.834 17.5 -54.501 17.5
c-30 0 -52.667 -11.5 -68 -34.5s-24 -61.833 -26 -116.5h-136c0 88.667 20.167 157.667 60.5 207s95.5 74 165.5 74c32 0 61.5 -5.83301 88.5 -17.5s49.333 -25.667 67 -42s34 -32.666 49 -48.999s30.167 -30.333 45.5 -42s30.666 -17.5 45.999 -17.5
c58 0 89.667 50.333 95 151h135c0 -85.333 -20.5 -153.5 -61.5 -204.5s-95.833 -76.5 -164.5 -76.5z" />
    <glyph glyph-name="Adieresis" unicode="&#xc4;" horiz-adv-x="1380" 
d="M1122 0l-145 413h-574l-145 -413h-189l532 1443h178l532 -1443h-189zM682 1210l-226 -644h468l-226 644h-16zM488 1575c-33.333 0 -61.833 11.833 -85.5 35.5s-35.5 52.167 -35.5 85.5s11.833 61.833 35.5 85.5s52.167 35.5 85.5 35.5s61.833 -11.833 85.5 -35.5
s35.5 -52.167 35.5 -85.5s-11.833 -61.833 -35.5 -85.5s-52.167 -35.5 -85.5 -35.5zM892 1575c-33.333 0 -61.833 11.833 -85.5 35.5s-35.5 52.167 -35.5 85.5s11.833 61.833 35.5 85.5s52.167 35.5 85.5 35.5s61.833 -11.833 85.5 -35.5s35.5 -52.167 35.5 -85.5
s-11.833 -61.833 -35.5 -85.5s-52.167 -35.5 -85.5 -35.5z" />
    <glyph glyph-name="Aring" unicode="&#xc5;" horiz-adv-x="1380" 
d="M1122 0l-145 413h-574l-145 -413h-189l532 1443h178l532 -1443h-189zM682 1210l-226 -644h468l-226 644h-16zM690 1551c-55.333 0 -102.333 19 -141 57s-58 84.667 -58 140s19.333 102 58 140s85.667 57 141 57s102.333 -19 141 -57s58 -84.667 58 -140
s-19.333 -102 -58 -140s-85.667 -57 -141 -57zM690 1643c30.667 0 55.834 10 75.501 30s29.5 45 29.5 75c0 30.667 -9.83301 55.834 -29.5 75.501s-44.834 29.5 -75.501 29.5s-55.834 -9.83301 -75.501 -29.5s-29.5 -44.834 -29.5 -75.501c0 -30 9.83301 -55 29.5 -75
s44.834 -30 75.501 -30z" />
    <glyph glyph-name="AE" unicode="&#xc6;" horiz-adv-x="1966" 
d="M986 1292h-147l-310 -680h457v680zM986 0v459h-527l-209 -459h-181l651 1443h1104v-162h-658v-473h621v-160h-621v-486h658v-162h-838z" />
    <glyph glyph-name="Ccedilla" unicode="&#xc7;" horiz-adv-x="1466" 
d="M1348 1008h-183.002c-24 93.333 -72 167.166 -144 221.499s-157.667 81.5 -257 81.5c-138.667 0 -248.5 -53 -329.5 -159s-121.5 -249.667 -121.5 -431s40.667 -324.833 122 -430.5s191.333 -158.5 330 -158.5c100.667 0 186.834 24.167 258.501 72.5
s118.834 114.166 141.501 197.499h183c-22 -121.333 -78.833 -220.666 -170.5 -297.999s-205.5 -122.333 -341.5 -135l-43 -111c68 0 120.833 -14.333 158.5 -43s56.5 -68.667 56.5 -120c0 -56.667 -21.833 -102.334 -65.5 -137.001s-103.167 -52 -178.5 -52
c-56 0 -104.667 6 -146 18v108c32 -9.33301 72.667 -14 122 -14c79.333 0 119 24.333 119 73c0 23.333 -11.667 40 -35 50s-61.333 15 -114 15h-59v84l51 129c-178 14.667 -318.167 88.834 -420.5 222.501s-153.5 310.167 -153.5 529.5c0 232.667 57 416.834 171 552.501
s269 203.5 465 203.5c152 0 282 -43.333 390 -130s172.667 -199.667 194 -339z" />
    <glyph glyph-name="Egrave" unicode="&#xc8;" horiz-adv-x="1220" 
d="M1078 162v-162h-894v1443h894v-162h-714v-463h677v-160h-677v-496h714zM419 1873l310 -298h-204l-332 298h226z" />
    <glyph glyph-name="Eacute" unicode="&#xc9;" horiz-adv-x="1220" 
d="M1078 162v-162h-894v1443h894v-162h-714v-463h677v-160h-677v-496h714zM525 1575l310 298h226l-332 -298h-204z" />
    <glyph glyph-name="Ecircumflex" unicode="&#xca;" horiz-adv-x="1220" 
d="M1078 162v-162h-894v1443h894v-162h-714v-463h677v-160h-677v-496h714zM713 1873l300 -298h-202l-172 177h-16l-172 -177h-202l300 298h164z" />
    <glyph glyph-name="Edieresis" unicode="&#xcb;" horiz-adv-x="1220" 
d="M1078 162v-162h-894v1443h894v-162h-714v-463h677v-160h-677v-496h714zM429 1575c-33.333 0 -61.833 11.833 -85.5 35.5s-35.5 52.167 -35.5 85.5s11.833 61.833 35.5 85.5s52.167 35.5 85.5 35.5s61.833 -11.833 85.5 -35.5s35.5 -52.167 35.5 -85.5
s-11.833 -61.833 -35.5 -85.5s-52.167 -35.5 -85.5 -35.5zM833 1575c-33.333 0 -61.833 11.833 -85.5 35.5s-35.5 52.167 -35.5 85.5s11.833 61.833 35.5 85.5s52.167 35.5 85.5 35.5s61.833 -11.833 85.5 -35.5s35.5 -52.167 35.5 -85.5s-11.833 -61.833 -35.5 -85.5
s-52.167 -35.5 -85.5 -35.5z" />
    <glyph glyph-name="Igrave" unicode="&#xcc;" horiz-adv-x="548" 
d="M364 0h-180v1443h180v-1443zM62 1873l310 -298h-204l-332 298h226z" />
    <glyph glyph-name="Iacute" unicode="&#xcd;" horiz-adv-x="548" 
d="M364 0h-180v1443h180v-1443zM168 1575l310 298h226l-332 -298h-204z" />
    <glyph glyph-name="Icircumflex" unicode="&#xce;" horiz-adv-x="548" 
d="M364 0h-180v1443h180v-1443zM356 1873l300 -298h-202l-172 177h-16l-172 -177h-202l300 298h164z" />
    <glyph glyph-name="Idieresis" unicode="&#xcf;" horiz-adv-x="548" 
d="M364 0h-180v1443h180v-1443zM72 1575c-33.333 0 -61.833 11.833 -85.5 35.5s-35.5 52.167 -35.5 85.5s11.833 61.833 35.5 85.5s52.167 35.5 85.5 35.5s61.833 -11.833 85.5 -35.5s35.5 -52.167 35.5 -85.5s-11.833 -61.833 -35.5 -85.5s-52.167 -35.5 -85.5 -35.5z
M476 1575c-33.333 0 -61.833 11.833 -85.5 35.5s-35.5 52.167 -35.5 85.5s11.833 61.833 35.5 85.5s52.167 35.5 85.5 35.5s61.833 -11.833 85.5 -35.5s35.5 -52.167 35.5 -85.5s-11.833 -61.833 -35.5 -85.5s-52.167 -35.5 -85.5 -35.5z" />
    <glyph glyph-name="Eth" unicode="&#xd0;" horiz-adv-x="1487" 
d="M364 162l303 -0.000976562c160.667 0 285.667 49 375 147s134 235 134 411c0 176.667 -44.833 314.334 -134.5 413.001s-214.5 148 -374.5 148h-303v-455h248v-163h-248v-501zM184 1443h495.001c214 0 381 -63.5 501 -190.5s180 -303.833 180 -530.5
c0 -227.333 -59.833 -404.5 -179.5 -531.5s-286.834 -190.5 -501.501 -190.5h-495v663h-158v163h158v617z" />
    <glyph glyph-name="Ntilde" unicode="&#xd1;" horiz-adv-x="1520" 
d="M362 0h-178v1443h175l783 -1123h16v1123h178v-1443h-175l-783 1119h-16v-1119zM910 1575c-30 0 -57.498 5.83301 -82.498 17.5s-45.833 25.667 -62.5 42s-32.5 32.666 -47.5 48.999s-31.333 30.333 -49 42s-35.834 17.5 -54.501 17.5c-30 0 -52.667 -11.5 -68 -34.5
s-24 -61.833 -26 -116.5h-136c0 88.667 20.167 157.667 60.5 207s95.5 74 165.5 74c32 0 61.5 -5.83301 88.5 -17.5s49.333 -25.667 67 -42s34 -32.666 49 -48.999s30.167 -30.333 45.5 -42s30.666 -17.5 45.999 -17.5c58 0 89.667 50.333 95 151h135
c0 -85.333 -20.5 -153.5 -61.5 -204.5s-95.833 -76.5 -164.5 -76.5z" />
    <glyph glyph-name="Ograve" unicode="&#xd2;" horiz-adv-x="1579" 
d="M791 1477c204.667 0 365.834 -67.833 483.501 -203.5s176.5 -319.5 176.5 -551.5s-58.833 -416 -176.5 -552s-278.834 -204 -483.501 -204c-206 0 -368 68 -486 204s-177 320 -177 552s59.5 415.833 178.5 551.5s280.5 203.5 484.5 203.5zM791 1311
c-146.667 0 -263 -53 -349 -159s-129 -249.333 -129 -430s42.5 -324.167 127.5 -430.5s201.833 -159.5 350.5 -159.5c147.333 0 263.333 53.333 348 160s127 250 127 430c0 181.333 -42.333 324.833 -127 430.5s-200.667 158.5 -348 158.5zM579 1873l310 -298h-204l-332 298
h226z" />
    <glyph glyph-name="Oacute" unicode="&#xd3;" horiz-adv-x="1579" 
d="M791 1477c204.667 0 365.834 -67.833 483.501 -203.5s176.5 -319.5 176.5 -551.5s-58.833 -416 -176.5 -552s-278.834 -204 -483.501 -204c-206 0 -368 68 -486 204s-177 320 -177 552s59.5 415.833 178.5 551.5s280.5 203.5 484.5 203.5zM791 1311
c-146.667 0 -263 -53 -349 -159s-129 -249.333 -129 -430s42.5 -324.167 127.5 -430.5s201.833 -159.5 350.5 -159.5c147.333 0 263.333 53.333 348 160s127 250 127 430c0 181.333 -42.333 324.833 -127 430.5s-200.667 158.5 -348 158.5zM685 1575l310 298h226l-332 -298
h-204z" />
    <glyph glyph-name="Ocircumflex" unicode="&#xd4;" horiz-adv-x="1579" 
d="M791 1477c204.667 0 365.834 -67.833 483.501 -203.5s176.5 -319.5 176.5 -551.5s-58.833 -416 -176.5 -552s-278.834 -204 -483.501 -204c-206 0 -368 68 -486 204s-177 320 -177 552s59.5 415.833 178.5 551.5s280.5 203.5 484.5 203.5zM791 1311
c-146.667 0 -263 -53 -349 -159s-129 -249.333 -129 -430s42.5 -324.167 127.5 -430.5s201.833 -159.5 350.5 -159.5c147.333 0 263.333 53.333 348 160s127 250 127 430c0 181.333 -42.333 324.833 -127 430.5s-200.667 158.5 -348 158.5zM873 1873l300 -298h-202l-172 177
h-16l-172 -177h-202l300 298h164z" />
    <glyph glyph-name="Otilde" unicode="&#xd5;" horiz-adv-x="1579" 
d="M791 1477c204.667 0 365.834 -67.833 483.501 -203.5s176.5 -319.5 176.5 -551.5s-58.833 -416 -176.5 -552s-278.834 -204 -483.501 -204c-206 0 -368 68 -486 204s-177 320 -177 552s59.5 415.833 178.5 551.5s280.5 203.5 484.5 203.5zM791 1311
c-146.667 0 -263 -53 -349 -159s-129 -249.333 -129 -430s42.5 -324.167 127.5 -430.5s201.833 -159.5 350.5 -159.5c147.333 0 263.333 53.333 348 160s127 250 127 430c0 181.333 -42.333 324.833 -127 430.5s-200.667 158.5 -348 158.5zM941 1575
c-30 0 -57.498 5.83301 -82.498 17.5s-45.833 25.667 -62.5 42s-32.5 32.666 -47.5 48.999s-31.333 30.333 -49 42s-35.834 17.5 -54.501 17.5c-30 0 -52.667 -11.5 -68 -34.5s-24 -61.833 -26 -116.5h-136c0 88.667 20.167 157.667 60.5 207s95.5 74 165.5 74
c32 0 61.5 -5.83301 88.5 -17.5s49.333 -25.667 67 -42s34 -32.666 49 -48.999s30.167 -30.333 45.5 -42s30.666 -17.5 45.999 -17.5c58 0 89.667 50.333 95 151h135c0 -85.333 -20.5 -153.5 -61.5 -204.5s-95.833 -76.5 -164.5 -76.5z" />
    <glyph glyph-name="Odieresis" unicode="&#xd6;" horiz-adv-x="1579" 
d="M791 1477c204.667 0 365.834 -67.833 483.501 -203.5s176.5 -319.5 176.5 -551.5s-58.833 -416 -176.5 -552s-278.834 -204 -483.501 -204c-206 0 -368 68 -486 204s-177 320 -177 552s59.5 415.833 178.5 551.5s280.5 203.5 484.5 203.5zM791 1311
c-146.667 0 -263 -53 -349 -159s-129 -249.333 -129 -430s42.5 -324.167 127.5 -430.5s201.833 -159.5 350.5 -159.5c147.333 0 263.333 53.333 348 160s127 250 127 430c0 181.333 -42.333 324.833 -127 430.5s-200.667 158.5 -348 158.5zM589 1575
c-33.333 0 -61.833 11.833 -85.5 35.5s-35.5 52.167 -35.5 85.5s11.833 61.833 35.5 85.5s52.167 35.5 85.5 35.5s61.833 -11.833 85.5 -35.5s35.5 -52.167 35.5 -85.5s-11.833 -61.833 -35.5 -85.5s-52.167 -35.5 -85.5 -35.5zM993 1575
c-33.333 0 -61.833 11.833 -85.5 35.5s-35.5 52.167 -35.5 85.5s11.833 61.833 35.5 85.5s52.167 35.5 85.5 35.5s61.833 -11.833 85.5 -35.5s35.5 -52.167 35.5 -85.5s-11.833 -61.833 -35.5 -85.5s-52.167 -35.5 -85.5 -35.5z" />
    <glyph glyph-name="multiply" unicode="&#xd7;" horiz-adv-x="1328" 
d="M664 475l-308 -307l-104 104l307 308l-307 308l104 104l308 -307l308 307l104 -104l-307 -308l307 -308l-104 -104z" />
    <glyph glyph-name="Oslash" unicode="&#xd8;" horiz-adv-x="1551" 
d="M1158 1127l-675 -881c81.333 -76 184 -114 308 -114c147.333 0 263.333 53.333 348 160s127 250 127 430c0 166 -36 301 -108 405zM403 346l672 870.999c-78 62.667 -172.667 94 -284 94c-146.667 0 -263 -53 -349 -159s-129 -249.333 -129 -430
c0 -151.333 30 -276.666 90 -375.999zM1382 1419l-110 -142.999c119.333 -134.667 179 -319.334 179 -554.001c0 -232 -58.833 -416 -176.5 -552s-278.834 -204 -483.501 -204c-165.333 0 -304.666 45.667 -417.999 137l-115 -150l-100 76l127 165
c-104.667 133.333 -157 309.333 -157 528c0 232 59.5 415.833 178.5 551.5s280.5 203.5 484.5 203.5c154 0 284.667 -39.667 392 -119l101 130z" />
    <glyph glyph-name="Ugrave" unicode="&#xd9;" horiz-adv-x="1524" 
d="M369 1443l-0.00195312 -935c0 -111.333 34.833 -201.833 104.5 -271.5s165.834 -104.5 288.501 -104.5s218.834 34.833 288.501 104.5s104.5 160.167 104.5 271.5v935h180v-947c0 -156.667 -51.5 -284.167 -154.5 -382.5s-242.5 -147.5 -418.5 -147.5
s-315.5 49.167 -418.5 147.5s-154.5 225.833 -154.5 382.5v947h180zM549.998 1873l310 -298h-204l-332 298h226z" />
    <glyph glyph-name="Uacute" unicode="&#xda;" horiz-adv-x="1524" 
d="M369 1443l-0.00195312 -935c0 -111.333 34.833 -201.833 104.5 -271.5s165.834 -104.5 288.501 -104.5s218.834 34.833 288.501 104.5s104.5 160.167 104.5 271.5v935h180v-947c0 -156.667 -51.5 -284.167 -154.5 -382.5s-242.5 -147.5 -418.5 -147.5
s-315.5 49.167 -418.5 147.5s-154.5 225.833 -154.5 382.5v947h180zM655.998 1575l310 298h226l-332 -298h-204z" />
    <glyph glyph-name="Ucircumflex" unicode="&#xdb;" horiz-adv-x="1524" 
d="M369 1443l-0.00195312 -935c0 -111.333 34.833 -201.833 104.5 -271.5s165.834 -104.5 288.501 -104.5s218.834 34.833 288.501 104.5s104.5 160.167 104.5 271.5v935h180v-947c0 -156.667 -51.5 -284.167 -154.5 -382.5s-242.5 -147.5 -418.5 -147.5
s-315.5 49.167 -418.5 147.5s-154.5 225.833 -154.5 382.5v947h180zM843.998 1873l300 -298h-202l-172 177h-16l-172 -177h-202l300 298h164z" />
    <glyph glyph-name="Udieresis" unicode="&#xdc;" horiz-adv-x="1524" 
d="M369 1443l-0.00195312 -935c0 -111.333 34.833 -201.833 104.5 -271.5s165.834 -104.5 288.501 -104.5s218.834 34.833 288.501 104.5s104.5 160.167 104.5 271.5v935h180v-947c0 -156.667 -51.5 -284.167 -154.5 -382.5s-242.5 -147.5 -418.5 -147.5
s-315.5 49.167 -418.5 147.5s-154.5 225.833 -154.5 382.5v947h180zM559.998 1575c-33.333 0 -61.833 11.833 -85.5 35.5s-35.5 52.167 -35.5 85.5s11.833 61.833 35.5 85.5s52.167 35.5 85.5 35.5s61.833 -11.833 85.5 -35.5s35.5 -52.167 35.5 -85.5
s-11.833 -61.833 -35.5 -85.5s-52.167 -35.5 -85.5 -35.5zM963.998 1575c-33.333 0 -61.833 11.833 -85.5 35.5s-35.5 52.167 -35.5 85.5s11.833 61.833 35.5 85.5s52.167 35.5 85.5 35.5s61.833 -11.833 85.5 -35.5s35.5 -52.167 35.5 -85.5s-11.833 -61.833 -35.5 -85.5
s-52.167 -35.5 -85.5 -35.5z" />
    <glyph glyph-name="Yacute" unicode="&#xdd;" horiz-adv-x="1344" 
d="M762 0h-180v621l-512 822h205l389 -641h16l389 641h205l-512 -822v-621zM566 1575l310 298h226l-332 -298h-204z" />
    <glyph glyph-name="Thorn" unicode="&#xde;" horiz-adv-x="1280" 
d="M184 1443l180.001 0.000976562v-266h373c55.333 0 108.333 -9.33301 159 -28s95.5 -45.334 134.5 -80.001s70.167 -78.5 93.5 -131.5s35 -111.5 35 -175.5s-11.667 -122.667 -35 -176s-54.833 -97.333 -94.5 -132s-84.834 -61.5 -135.501 -80.5
s-103.667 -28.5 -159 -28.5h-371v-345h-180v1443zM364.001 1017v-511.999h322c86.667 0 156.334 22 209.001 66s79 107.667 79 191s-26.333 146.666 -79 189.999s-122.334 65 -209.001 65h-322z" />
    <glyph glyph-name="germandbls" unicode="&#xdf;" horiz-adv-x="1274" 
d="M396 0l-171 0.000976562v1101c0 121.333 38.5 217.5 115.5 288.5s178.167 106.5 303.5 106.5c122 0 221.667 -35 299 -105s116 -160 116 -270c0 -80.667 -21.667 -151.334 -65 -212.001s-98 -101.334 -164 -122.001v-18c104 -10 186 -46.167 246 -108.5
s90 -146.833 90 -253.5c0 -120.667 -42 -221 -126 -301s-193.667 -120 -329 -120c-55.333 0 -103.333 4.33301 -144 13v153c40.667 -9.33301 84.667 -14 132 -14c92.667 0 165.167 25 217.5 75s78.5 115.333 78.5 196c0 83.333 -29.833 149 -89.5 197s-143.167 72 -250.5 72
h-61v170h51c75.333 0 135 22.833 179 68.5s66 110.834 66 195.501c0 66.667 -22 122 -66 166s-103 66 -177 66c-78 0 -139.333 -22.833 -184 -68.5s-67 -109.5 -67 -191.5v-1084z" />
    <glyph glyph-name="agrave" unicode="&#xe0;" horiz-adv-x="1130" 
d="M494 132c88.667 0 162.167 25.6689 220.5 77.002s87.5 115.666 87.5 192.999v99l-290 -19c-81.333 -5.33301 -141 -22.333 -179 -51s-57 -70.334 -57 -125.001c0 -54 20.333 -96.5 61 -127.5s93 -46.5 157 -46.5zM462 -18.998c-106 0 -193.166 29.168 -261.499 87.501
s-102.5 136.166 -102.5 233.499c0 96 34 171.333 102 226s165 85.667 291 93l311 19v98c0 66.667 -20.667 117.667 -62 153s-102 53 -182 53c-64.667 0 -118.334 -11.667 -161.001 -35s-70 -56.333 -82 -99h-174c11.333 86 55.833 155.333 133.5 208s174.167 79 289.5 79
c130.667 0 231.667 -31.667 303 -95s107 -151.333 107 -264v-738h-164v159h-16c-34.667 -57.333 -80.667 -101.333 -138 -132s-122 -46 -194 -46zM686.001 1263h-194l-278 338h220z" />
    <glyph glyph-name="aacute" unicode="&#xe1;" horiz-adv-x="1130" 
d="M494 132c88.667 0 162.167 25.6689 220.5 77.002s87.5 115.666 87.5 192.999v99l-290 -19c-81.333 -5.33301 -141 -22.333 -179 -51s-57 -70.334 -57 -125.001c0 -54 20.333 -96.5 61 -127.5s93 -46.5 157 -46.5zM462 -18.998c-106 0 -193.166 29.168 -261.499 87.501
s-102.5 136.166 -102.5 233.499c0 96 34 171.333 102 226s165 85.667 291 93l311 19v98c0 66.667 -20.667 117.667 -62 153s-102 53 -182 53c-64.667 0 -118.334 -11.667 -161.001 -35s-70 -56.333 -82 -99h-174c11.333 86 55.833 155.333 133.5 208s174.167 79 289.5 79
c130.667 0 231.667 -31.667 303 -95s107 -151.333 107 -264v-738h-164v159h-16c-34.667 -57.333 -80.667 -101.333 -138 -132s-122 -46 -194 -46zM450.001 1263l252 338h220l-278 -338h-194z" />
    <glyph glyph-name="acircumflex" unicode="&#xe2;" horiz-adv-x="1130" 
d="M494 132c88.667 0 162.167 25.6689 220.5 77.002s87.5 115.666 87.5 192.999v99l-290 -19c-81.333 -5.33301 -141 -22.333 -179 -51s-57 -70.334 -57 -125.001c0 -54 20.333 -96.5 61 -127.5s93 -46.5 157 -46.5zM462 -18.998c-106 0 -193.166 29.168 -261.499 87.501
s-102.5 136.166 -102.5 233.499c0 96 34 171.333 102 226s165 85.667 291 93l311 19v98c0 66.667 -20.667 117.667 -62 153s-102 53 -182 53c-64.667 0 -118.334 -11.667 -161.001 -35s-70 -56.333 -82 -99h-174c11.333 86 55.833 155.333 133.5 208s174.167 79 289.5 79
c130.667 0 231.667 -31.667 303 -95s107 -151.333 107 -264v-738h-164v159h-16c-34.667 -57.333 -80.667 -101.333 -138 -132s-122 -46 -194 -46zM665.001 1568l282 -340h-198l-177 227h-16l-177 -227h-198l282 340h202z" />
    <glyph glyph-name="atilde" unicode="&#xe3;" horiz-adv-x="1130" 
d="M494 132c88.667 0 162.167 25.6689 220.5 77.002s87.5 115.666 87.5 192.999v99l-290 -19c-81.333 -5.33301 -141 -22.333 -179 -51s-57 -70.334 -57 -125.001c0 -54 20.333 -96.5 61 -127.5s93 -46.5 157 -46.5zM462 -18.998c-106 0 -193.166 29.168 -261.499 87.501
s-102.5 136.166 -102.5 233.499c0 96 34 171.333 102 226s165 85.667 291 93l311 19v98c0 66.667 -20.667 117.667 -62 153s-102 53 -182 53c-64.667 0 -118.334 -11.667 -161.001 -35s-70 -56.333 -82 -99h-174c11.333 86 55.833 155.333 133.5 208s174.167 79 289.5 79
c130.667 0 231.667 -31.667 303 -95s107 -151.333 107 -264v-738h-164v159h-16c-34.667 -57.333 -80.667 -101.333 -138 -132s-122 -46 -194 -46zM426.001 1388c-35.333 0 -60.5 -12 -75.5 -36s-22.5 -64.333 -22.5 -121h-142c0 90.667 20.5 161.834 61.5 213.501
s97.833 77.5 170.5 77.5c29.333 0 56.833 -5.33301 82.5 -16s47.167 -23.667 64.5 -39s33.333 -30.833 48 -46.5s29.5 -28.834 44.5 -39.501s29.833 -16 44.5 -16c35.333 0 60.5 12 75.5 36s22.5 64.333 22.5 121h142c0 -90.667 -20.5 -161.834 -61.5 -213.501
s-97.833 -77.5 -170.5 -77.5c-29.333 0 -56.833 5.33301 -82.5 16s-47.167 23.834 -64.5 39.501s-33.333 31.167 -48 46.5s-29.5 28.333 -44.5 39s-29.833 16 -44.5 16z" />
    <glyph glyph-name="adieresis" unicode="&#xe4;" horiz-adv-x="1130" 
d="M494 132c88.667 0 162.167 25.6689 220.5 77.002s87.5 115.666 87.5 192.999v99l-290 -19c-81.333 -5.33301 -141 -22.333 -179 -51s-57 -70.334 -57 -125.001c0 -54 20.333 -96.5 61 -127.5s93 -46.5 157 -46.5zM462 -18.998c-106 0 -193.166 29.168 -261.499 87.501
s-102.5 136.166 -102.5 233.499c0 96 34 171.333 102 226s165 85.667 291 93l311 19v98c0 66.667 -20.667 117.667 -62 153s-102 53 -182 53c-64.667 0 -118.334 -11.667 -161.001 -35s-70 -56.333 -82 -99h-174c11.333 86 55.833 155.333 133.5 208s174.167 79 289.5 79
c130.667 0 231.667 -31.667 303 -95s107 -151.333 107 -264v-738h-164v159h-16c-34.667 -57.333 -80.667 -101.333 -138 -132s-122 -46 -194 -46zM362.001 1228c-33.333 0 -61.833 11.833 -85.5 35.5s-35.5 52.167 -35.5 85.5s11.833 61.833 35.5 85.5
s52.167 35.5 85.5 35.5s61.833 -11.833 85.5 -35.5s35.5 -52.167 35.5 -85.5s-11.833 -61.833 -35.5 -85.5s-52.167 -35.5 -85.5 -35.5zM766.001 1228c-33.333 0 -61.833 11.833 -85.5 35.5s-35.5 52.167 -35.5 85.5s11.833 61.833 35.5 85.5s52.167 35.5 85.5 35.5
s61.833 -11.833 85.5 -35.5s35.5 -52.167 35.5 -85.5s-11.833 -61.833 -35.5 -85.5s-52.167 -35.5 -85.5 -35.5z" />
    <glyph glyph-name="aring" unicode="&#xe5;" horiz-adv-x="1130" 
d="M494 132c88.667 0 162.167 25.6689 220.5 77.002s87.5 115.666 87.5 192.999v99l-290 -19c-81.333 -5.33301 -141 -22.333 -179 -51s-57 -70.334 -57 -125.001c0 -54 20.333 -96.5 61 -127.5s93 -46.5 157 -46.5zM462 -18.998c-106 0 -193.166 29.168 -261.499 87.501
s-102.5 136.166 -102.5 233.499c0 96 34 171.333 102 226s165 85.667 291 93l311 19v98c0 66.667 -20.667 117.667 -62 153s-102 53 -182 53c-64.667 0 -118.334 -11.667 -161.001 -35s-70 -56.333 -82 -99h-174c11.333 86 55.833 155.333 133.5 208s174.167 79 289.5 79
c130.667 0 231.667 -31.667 303 -95s107 -151.333 107 -264v-738h-164v159h-16c-34.667 -57.333 -80.667 -101.333 -138 -132s-122 -46 -194 -46zM564.001 1228c-64 0 -118.667 22.167 -164 66.5s-68 98.5 -68 162.5s22.667 118.167 68 162.5s100 66.5 164 66.5
s118.667 -22.167 164 -66.5s68 -98.5 68 -162.5s-22.667 -118.167 -68 -162.5s-100 -66.5 -164 -66.5zM564.001 1334c34.667 0 63.667 11.667 87 35s35 52.666 35 87.999s-11.667 64.666 -35 87.999s-52.333 35 -87 35s-63.667 -11.667 -87 -35s-35 -52.666 -35 -87.999
s11.667 -64.666 35 -87.999s52.333 -35 87 -35z" />
    <glyph glyph-name="ae" unicode="&#xe6;" horiz-adv-x="1849" 
d="M1287 -19c-86 0 -164.67 21.6689 -236.003 65.002s-121.333 98.666 -150 165.999h-16c-35.333 -72.667 -88.166 -129.334 -158.499 -170.001s-152.833 -61 -247.5 -61c-114 0 -206 29 -276 87s-105 136 -105 234c0 96 34 171.333 102 226s165 85.667 291 93l311 19v98
c0 66.667 -20.667 117.667 -62 153s-102 53 -182 53c-64.667 0 -118.334 -11.667 -161.001 -35s-70 -56.333 -82 -99h-174c11.333 86.667 55.833 156.167 133.5 208.5s174.167 78.5 289.5 78.5c82.667 0 154.167 -16.833 214.5 -50.5s104.833 -78.5 133.5 -134.5h16
c32 54 80.5 98.333 145.5 133s135.5 52 211.5 52c142.667 0 254.334 -46.833 335.001 -140.5s121 -223.167 121 -388.5v-68h-768v-18c4.66699 -106 35.667 -190.5 93 -253.5s132.333 -94.5 225 -94.5c66.667 0 121.5 11.833 164.5 35.5s76.167 60.167 99.5 109.5h172
c-27.333 -95.333 -79.166 -168.833 -155.499 -220.5s-171.166 -77.5 -284.499 -77.5zM1276 946.002c-86.667 0 -157.167 -27.5 -211.5 -82.5s-84.833 -129.833 -91.5 -224.5h587c-2 90 -29.5 163.667 -82.5 221s-120.167 86 -201.5 86zM503.997 132.002
c85.333 0 156.332 26.834 212.999 80.501s85 119.5 85 197.5v91l-290 -19c-81.333 -5.33301 -141 -22.333 -179 -51s-57 -70.334 -57 -125.001c0 -54 20.833 -96.5 62.5 -127.5s96.834 -46.5 165.501 -46.5z" />
    <glyph glyph-name="ccedilla" unicode="&#xe7;" horiz-adv-x="1146" 
d="M1054 748h-173.999c-14.667 56.667 -46.167 103.167 -94.5 139.5s-109.5 54.5 -183.5 54.5c-96.667 0 -173.5 -36 -230.5 -108s-85.5 -169 -85.5 -291c0 -124 28.667 -222.833 86 -296.5s134 -110.5 230 -110.5c72.667 0 133.167 16.333 181.5 49
s80.5 79.334 96.5 140.001h174c-14.667 -90.667 -54.5 -166.667 -119.5 -228s-149.5 -98.333 -253.5 -111l-49 -128c68 0 120.833 -14.333 158.5 -43s56.5 -68.667 56.5 -120c0 -56.667 -21.833 -102.334 -65.5 -137.001s-103.167 -52 -178.5 -52
c-56.667 0 -105.334 6 -146.001 18v108c32 -9.33301 72.667 -14 122 -14c79.333 0 119 24.333 119 73c0 23.333 -11.667 40 -35 50s-61.333 15 -114 15h-59v84l57 144c-135.333 12.667 -242.333 69 -321 169s-118 230 -118 390c0 168 44.667 302.333 134 403
s209.333 151 360 151c126 0 228.833 -33 308.5 -99s127.5 -149.333 143.5 -250z" />
    <glyph glyph-name="egrave" unicode="&#xe8;" horiz-adv-x="1170" 
d="M592 945c-86 0 -156.667 -29 -212 -87s-86.333 -134.667 -93 -230h594c-2 95.333 -29.333 172 -82 230s-121.667 87 -207 87zM876 279l171.999 0.000976562c-26 -93.333 -78.833 -166.333 -158.5 -219s-178.167 -79 -295.5 -79
c-149.333 0 -267.666 50.167 -354.999 150.5s-131 235.833 -131 406.5c0 170 44 305.667 132 407s206 152 354 152c145.333 0 259.666 -48.333 342.999 -145s125 -229 125 -397v-66h-775v-8c4.66699 -106.667 34.834 -191.334 90.501 -254.001s129.167 -94 220.5 -94
c139.333 0 232 48.667 278 146zM715.999 1263h-194l-278 338h220z" />
    <glyph glyph-name="eacute" unicode="&#xe9;" horiz-adv-x="1170" 
d="M592 945c-86 0 -156.667 -29 -212 -87s-86.333 -134.667 -93 -230h594c-2 95.333 -29.333 172 -82 230s-121.667 87 -207 87zM876 279l171.999 0.000976562c-26 -93.333 -78.833 -166.333 -158.5 -219s-178.167 -79 -295.5 -79
c-149.333 0 -267.666 50.167 -354.999 150.5s-131 235.833 -131 406.5c0 170 44 305.667 132 407s206 152 354 152c145.333 0 259.666 -48.333 342.999 -145s125 -229 125 -397v-66h-775v-8c4.66699 -106.667 34.834 -191.334 90.501 -254.001s129.167 -94 220.5 -94
c139.333 0 232 48.667 278 146zM479.999 1263l252 338h220l-278 -338h-194z" />
    <glyph glyph-name="ecircumflex" unicode="&#xea;" horiz-adv-x="1170" 
d="M592 945c-86 0 -156.667 -29 -212 -87s-86.333 -134.667 -93 -230h594c-2 95.333 -29.333 172 -82 230s-121.667 87 -207 87zM876 279l171.999 0.000976562c-26 -93.333 -78.833 -166.333 -158.5 -219s-178.167 -79 -295.5 -79
c-149.333 0 -267.666 50.167 -354.999 150.5s-131 235.833 -131 406.5c0 170 44 305.667 132 407s206 152 354 152c145.333 0 259.666 -48.333 342.999 -145s125 -229 125 -397v-66h-775v-8c4.66699 -106.667 34.834 -191.334 90.501 -254.001s129.167 -94 220.5 -94
c139.333 0 232 48.667 278 146zM694.999 1568l282 -340h-198l-177 227h-16l-177 -227h-198l282 340h202z" />
    <glyph glyph-name="edieresis" unicode="&#xeb;" horiz-adv-x="1170" 
d="M592 945c-86 0 -156.667 -29 -212 -87s-86.333 -134.667 -93 -230h594c-2 95.333 -29.333 172 -82 230s-121.667 87 -207 87zM876 279l171.999 0.000976562c-26 -93.333 -78.833 -166.333 -158.5 -219s-178.167 -79 -295.5 -79
c-149.333 0 -267.666 50.167 -354.999 150.5s-131 235.833 -131 406.5c0 170 44 305.667 132 407s206 152 354 152c145.333 0 259.666 -48.333 342.999 -145s125 -229 125 -397v-66h-775v-8c4.66699 -106.667 34.834 -191.334 90.501 -254.001s129.167 -94 220.5 -94
c139.333 0 232 48.667 278 146zM391.999 1228c-33.333 0 -61.833 11.833 -85.5 35.5s-35.5 52.167 -35.5 85.5s11.833 61.833 35.5 85.5s52.167 35.5 85.5 35.5s61.833 -11.833 85.5 -35.5s35.5 -52.167 35.5 -85.5s-11.833 -61.833 -35.5 -85.5s-52.167 -35.5 -85.5 -35.5z
M795.999 1228c-33.333 0 -61.833 11.833 -85.5 35.5s-35.5 52.167 -35.5 85.5s11.833 61.833 35.5 85.5s52.167 35.5 85.5 35.5s61.833 -11.833 85.5 -35.5s35.5 -52.167 35.5 -85.5s-11.833 -61.833 -35.5 -85.5s-52.167 -35.5 -85.5 -35.5z" />
    <glyph glyph-name="igrave" unicode="&#xec;" horiz-adv-x="504" 
d="M166 0v1078h172v-1078h-172zM374 1263h-194l-278 338h220z" />
    <glyph glyph-name="iacute" unicode="&#xed;" horiz-adv-x="504" 
d="M166 0v1078h172v-1078h-172zM138 1263l252 338h220l-278 -338h-194z" />
    <glyph glyph-name="icircumflex" unicode="&#xee;" horiz-adv-x="504" 
d="M166 0v1078h172v-1078h-172zM353 1568l282 -340h-198l-177 227h-16l-177 -227h-198l282 340h202z" />
    <glyph glyph-name="idieresis" unicode="&#xef;" horiz-adv-x="504" 
d="M166 0v1078h172v-1078h-172zM50 1228c-33.333 0 -61.833 11.833 -85.5 35.5s-35.5 52.167 -35.5 85.5s11.833 61.833 35.5 85.5s52.167 35.5 85.5 35.5s61.833 -11.833 85.5 -35.5s35.5 -52.167 35.5 -85.5s-11.833 -61.833 -35.5 -85.5s-52.167 -35.5 -85.5 -35.5z
M454 1228c-33.333 0 -61.833 11.833 -85.5 35.5s-35.5 52.167 -35.5 85.5s11.833 61.833 35.5 85.5s52.167 35.5 85.5 35.5s61.833 -11.833 85.5 -35.5s35.5 -52.167 35.5 -85.5s-11.833 -61.833 -35.5 -85.5s-52.167 -35.5 -85.5 -35.5z" />
    <glyph glyph-name="eth" unicode="&#xf0;" horiz-adv-x="1188" 
d="M601 -19c-152.667 0 -272.997 48 -360.997 144s-132 227.333 -132 394c0 160.667 41.667 290.5 125 389.5s192.666 148.5 327.999 148.5c67.333 0 131.333 -16 192 -48s102.667 -72.333 126 -121h15c-30 122 -90.667 239 -182 351l-278 -90l-35 112l231 75
c-41.333 48.667 -108 112 -200 190h206c51.333 -43.333 99.666 -90.333 144.999 -141l250 81l35 -112l-209 -68c73.333 -99.333 129.5 -210.333 168.5 -333s58.5 -250 58.5 -382c0 -182 -43.333 -325.833 -130 -431.5s-204.334 -158.5 -353.001 -158.5zM601.003 902
c-96 0 -172.5 -34.667 -229.5 -104s-85.5 -162.333 -85.5 -279s28.5 -209.667 85.5 -279s133.5 -104 229.5 -104c96.667 0 173.667 34.667 231 104s86 162.333 86 279c0 115.333 -29 208 -87 278s-134.667 105 -230 105z" />
    <glyph glyph-name="ntilde" unicode="&#xf1;" horiz-adv-x="1195" 
d="M162 0v1078h164v-170h16c57.333 126 165.333 189 324 189c120.667 0 213.667 -34.5 279 -103.5s98 -167.5 98 -295.5v-698h-172v656c0 96.667 -20.833 168.5 -62.5 215.5s-105.5 70.5 -191.5 70.5c-86.667 0 -155.5 -27.167 -206.5 -81.5s-76.5 -128.5 -76.5 -222.5v-638
h-172zM465 1388c-35.333 0 -60.5 -12 -75.5 -36s-22.5 -64.333 -22.5 -121h-142c0 90.667 20.5 161.834 61.5 213.501s97.833 77.5 170.5 77.5c29.333 0 56.833 -5.33301 82.5 -16s47.167 -23.667 64.5 -39s33.333 -30.833 48 -46.5s29.5 -28.834 44.5 -39.501
s29.833 -16 44.5 -16c35.333 0 60.5 12 75.5 36s22.5 64.333 22.5 121h142c0 -90.667 -20.5 -161.834 -61.5 -213.501s-97.833 -77.5 -170.5 -77.5c-29.333 0 -56.833 5.33301 -82.5 16s-47.167 23.834 -64.5 39.501s-33.333 31.167 -48 46.5s-29.5 28.333 -44.5 39
s-29.833 16 -44.5 16z" />
    <glyph glyph-name="ograve" unicode="&#xf2;" horiz-adv-x="1210" 
d="M605 136c102 0 180.667 35.167 236 105.5s83 169.5 83 297.5s-27.667 227.167 -83 297.5s-134 105.5 -236 105.5s-180.667 -35.167 -236 -105.5s-83 -169.5 -83 -297.5s27.667 -227.167 83 -297.5s134 -105.5 236 -105.5zM605 -19c-153.333 0 -274.5 49.833 -363.5 149.5
s-133.5 235.834 -133.5 408.501c0 173.333 44.333 309.666 133 408.999s210 149 364 149s275.333 -49.667 364 -149s133 -235.666 133 -408.999c0 -172.667 -44.5 -308.834 -133.5 -408.501s-210.167 -149.5 -363.5 -149.5zM727 1263h-194l-278 338h220z" />
    <glyph glyph-name="oacute" unicode="&#xf3;" horiz-adv-x="1210" 
d="M605 136c102 0 180.667 35.167 236 105.5s83 169.5 83 297.5s-27.667 227.167 -83 297.5s-134 105.5 -236 105.5s-180.667 -35.167 -236 -105.5s-83 -169.5 -83 -297.5s27.667 -227.167 83 -297.5s134 -105.5 236 -105.5zM605 -19c-153.333 0 -274.5 49.833 -363.5 149.5
s-133.5 235.834 -133.5 408.501c0 173.333 44.333 309.666 133 408.999s210 149 364 149s275.333 -49.667 364 -149s133 -235.666 133 -408.999c0 -172.667 -44.5 -308.834 -133.5 -408.501s-210.167 -149.5 -363.5 -149.5zM491 1263l252 338h220l-278 -338h-194z" />
    <glyph glyph-name="ocircumflex" unicode="&#xf4;" horiz-adv-x="1210" 
d="M605 136c102 0 180.667 35.167 236 105.5s83 169.5 83 297.5s-27.667 227.167 -83 297.5s-134 105.5 -236 105.5s-180.667 -35.167 -236 -105.5s-83 -169.5 -83 -297.5s27.667 -227.167 83 -297.5s134 -105.5 236 -105.5zM605 -19c-153.333 0 -274.5 49.833 -363.5 149.5
s-133.5 235.834 -133.5 408.501c0 173.333 44.333 309.666 133 408.999s210 149 364 149s275.333 -49.667 364 -149s133 -235.666 133 -408.999c0 -172.667 -44.5 -308.834 -133.5 -408.501s-210.167 -149.5 -363.5 -149.5zM706 1568l282 -340h-198l-177 227h-16l-177 -227
h-198l282 340h202z" />
    <glyph glyph-name="otilde" unicode="&#xf5;" horiz-adv-x="1210" 
d="M605 136c102 0 180.667 35.167 236 105.5s83 169.5 83 297.5s-27.667 227.167 -83 297.5s-134 105.5 -236 105.5s-180.667 -35.167 -236 -105.5s-83 -169.5 -83 -297.5s27.667 -227.167 83 -297.5s134 -105.5 236 -105.5zM605 -19c-153.333 0 -274.5 49.833 -363.5 149.5
s-133.5 235.834 -133.5 408.501c0 173.333 44.333 309.666 133 408.999s210 149 364 149s275.333 -49.667 364 -149s133 -235.666 133 -408.999c0 -172.667 -44.5 -308.834 -133.5 -408.501s-210.167 -149.5 -363.5 -149.5zM467 1388c-35.333 0 -60.5 -12 -75.5 -36
s-22.5 -64.333 -22.5 -121h-142c0 90.667 20.5 161.834 61.5 213.501s97.833 77.5 170.5 77.5c29.333 0 56.833 -5.33301 82.5 -16s47.167 -23.667 64.5 -39s33.333 -30.833 48 -46.5s29.5 -28.834 44.5 -39.501s29.833 -16 44.5 -16c35.333 0 60.5 12 75.5 36
s22.5 64.333 22.5 121h142c0 -90.667 -20.5 -161.834 -61.5 -213.501s-97.833 -77.5 -170.5 -77.5c-29.333 0 -56.833 5.33301 -82.5 16s-47.167 23.834 -64.5 39.501s-33.333 31.167 -48 46.5s-29.5 28.333 -44.5 39s-29.833 16 -44.5 16z" />
    <glyph glyph-name="odieresis" unicode="&#xf6;" horiz-adv-x="1210" 
d="M605 136c102 0 180.667 35.167 236 105.5s83 169.5 83 297.5s-27.667 227.167 -83 297.5s-134 105.5 -236 105.5s-180.667 -35.167 -236 -105.5s-83 -169.5 -83 -297.5s27.667 -227.167 83 -297.5s134 -105.5 236 -105.5zM605 -19c-153.333 0 -274.5 49.833 -363.5 149.5
s-133.5 235.834 -133.5 408.501c0 173.333 44.333 309.666 133 408.999s210 149 364 149s275.333 -49.667 364 -149s133 -235.666 133 -408.999c0 -172.667 -44.5 -308.834 -133.5 -408.501s-210.167 -149.5 -363.5 -149.5zM403 1228c-33.333 0 -61.833 11.833 -85.5 35.5
s-35.5 52.167 -35.5 85.5s11.833 61.833 35.5 85.5s52.167 35.5 85.5 35.5s61.833 -11.833 85.5 -35.5s35.5 -52.167 35.5 -85.5s-11.833 -61.833 -35.5 -85.5s-52.167 -35.5 -85.5 -35.5zM807 1228c-33.333 0 -61.833 11.833 -85.5 35.5s-35.5 52.167 -35.5 85.5
s11.833 61.833 35.5 85.5s52.167 35.5 85.5 35.5s61.833 -11.833 85.5 -35.5s35.5 -52.167 35.5 -85.5s-11.833 -61.833 -35.5 -85.5s-52.167 -35.5 -85.5 -35.5z" />
    <glyph glyph-name="divide" unicode="&#xf7;" horiz-adv-x="1328" 
d="M1173 506h-1018v148h1018v-148zM665 812c-36 0 -66 11.833 -90 35.5s-36 53.5 -36 89.5s12 65.833 36 89.5s54 35.5 90 35.5c35.333 0 64.833 -11.833 88.5 -35.5s35.5 -53.5 35.5 -89.5c0 -36.667 -11.833 -66.667 -35.5 -90s-53.167 -35 -88.5 -35zM665 98
c-36 0 -66 11.833 -90 35.5s-36 53.5 -36 89.5s12 65.833 36 89.5s54 35.5 90 35.5c35.333 0 64.833 -11.833 88.5 -35.5s35.5 -53.5 35.5 -89.5c0 -36.667 -11.833 -66.667 -35.5 -90s-53.167 -35 -88.5 -35z" />
    <glyph glyph-name="oslash" unicode="&#xf8;" horiz-adv-x="1210" 
d="M856 815l-427.001 -629c48.667 -33.333 107.334 -50 176.001 -50c102 0 180.667 35.167 236 105.5s83 169.5 83 297.5c0 116.667 -22.667 208.667 -68 276zM343.999 280l425 619.999c-46 28 -100.667 42 -164 42c-102 0 -180.667 -35.167 -236 -105.5
s-83 -169.5 -83 -297.5c0 -105.333 19.333 -191.666 58 -258.999zM1018 1054l-62.001 -91.998c97.333 -99.333 146 -240.333 146 -423c0 -172.667 -44.5 -308.834 -133.5 -408.501s-210.167 -149.5 -363.5 -149.5c-103.333 0 -192.666 23 -267.999 69l-59 -87l-104 69l67 98
c-88.667 100 -133 236.333 -133 409c0 173.333 44.333 309.666 133 408.999s210 149 364 149c96 0 181.333 -20.667 256 -62l57 83z" />
    <glyph glyph-name="ugrave" unicode="&#xf9;" horiz-adv-x="1196" 
d="M1034 1078v-1078h-164v169h-16c-27.333 -60.667 -69.333 -107.167 -126 -139.5s-126 -48.5 -208 -48.5c-120 0 -211.333 34.333 -274 103s-94 167.334 -94 296.001v698h172v-656c0 -98 19.333 -169.833 58 -215.5s100.667 -68.5 186 -68.5c94 0 166.5 26.5 217.5 79.5
s76.5 127.167 76.5 222.5v638h172zM715 1263h-194l-278 338h220z" />
    <glyph glyph-name="uacute" unicode="&#xfa;" horiz-adv-x="1196" 
d="M1034 1078v-1078h-164v169h-16c-27.333 -60.667 -69.333 -107.167 -126 -139.5s-126 -48.5 -208 -48.5c-120 0 -211.333 34.333 -274 103s-94 167.334 -94 296.001v698h172v-656c0 -98 19.333 -169.833 58 -215.5s100.667 -68.5 186 -68.5c94 0 166.5 26.5 217.5 79.5
s76.5 127.167 76.5 222.5v638h172zM479 1263l252 338h220l-278 -338h-194z" />
    <glyph glyph-name="ucircumflex" unicode="&#xfb;" horiz-adv-x="1196" 
d="M1034 1078v-1078h-164v169h-16c-27.333 -60.667 -69.333 -107.167 -126 -139.5s-126 -48.5 -208 -48.5c-120 0 -211.333 34.333 -274 103s-94 167.334 -94 296.001v698h172v-656c0 -98 19.333 -169.833 58 -215.5s100.667 -68.5 186 -68.5c94 0 166.5 26.5 217.5 79.5
s76.5 127.167 76.5 222.5v638h172zM694 1568l282 -340h-198l-177 227h-16l-177 -227h-198l282 340h202z" />
    <glyph glyph-name="udieresis" unicode="&#xfc;" horiz-adv-x="1196" 
d="M1034 1078v-1078h-164v169h-16c-27.333 -60.667 -69.333 -107.167 -126 -139.5s-126 -48.5 -208 -48.5c-120 0 -211.333 34.333 -274 103s-94 167.334 -94 296.001v698h172v-656c0 -98 19.333 -169.833 58 -215.5s100.667 -68.5 186 -68.5c94 0 166.5 26.5 217.5 79.5
s76.5 127.167 76.5 222.5v638h172zM391 1228c-33.333 0 -61.833 11.833 -85.5 35.5s-35.5 52.167 -35.5 85.5s11.833 61.833 35.5 85.5s52.167 35.5 85.5 35.5s61.833 -11.833 85.5 -35.5s35.5 -52.167 35.5 -85.5s-11.833 -61.833 -35.5 -85.5s-52.167 -35.5 -85.5 -35.5z
M795 1228c-33.333 0 -61.833 11.833 -85.5 35.5s-35.5 52.167 -35.5 85.5s11.833 61.833 35.5 85.5s52.167 35.5 85.5 35.5s61.833 -11.833 85.5 -35.5s35.5 -52.167 35.5 -85.5s-11.833 -61.833 -35.5 -85.5s-52.167 -35.5 -85.5 -35.5z" />
    <glyph glyph-name="yacute" unicode="&#xfd;" horiz-adv-x="1112" 
d="M254 -390c-27.333 0 -53.001 2 -77.001 6v147c17.333 -3.33301 41.333 -5 72 -5c50 0 89.833 13.333 119.5 40s55.834 72.334 78.501 137.001l20 64l-399 1079h186l296 -887h16l295 887h183l-421 -1144c-46 -124.667 -95 -209.834 -147 -255.501s-126 -68.5 -222 -68.5z
M436.999 1263l252 338h220l-278 -338h-194z" />
    <glyph glyph-name="thorn" unicode="&#xfe;" horiz-adv-x="1258" 
d="M697 1097c137.333 0 247.167 -50.667 329.5 -152s123.5 -236.666 123.5 -405.999c0 -168.667 -41.333 -303.834 -124 -405.501s-192.334 -152.5 -329.001 -152.5c-76.667 0 -144.667 15.833 -204 47.5s-103.666 76.167 -132.999 133.5h-16v-522h-172v1866h164v-608h16
c34.667 62 82.5 110.667 143.5 146s128.167 53 201.5 53zM656.001 136c98.667 0 176 35.667 232 107s84 170 84 296s-27.833 224.667 -83.5 296s-132.834 107 -231.501 107c-97.333 0 -174.666 -36.167 -231.999 -108.5s-86 -170.5 -86 -294.5
c0 -123.333 28.5 -221.333 85.5 -294s134.167 -109 231.5 -109z" />
    <glyph glyph-name="ydieresis" unicode="&#xff;" horiz-adv-x="1112" 
d="M254 -390c-27.333 0 -53.001 2 -77.001 6v147c17.333 -3.33301 41.333 -5 72 -5c50 0 89.833 13.333 119.5 40s55.834 72.334 78.501 137.001l20 64l-399 1079h186l296 -887h16l295 887h183l-421 -1144c-46 -124.667 -95 -209.834 -147 -255.501s-126 -68.5 -222 -68.5z
M348.999 1228c-33.333 0 -61.833 11.833 -85.5 35.5s-35.5 52.167 -35.5 85.5s11.833 61.833 35.5 85.5s52.167 35.5 85.5 35.5s61.833 -11.833 85.5 -35.5s35.5 -52.167 35.5 -85.5s-11.833 -61.833 -35.5 -85.5s-52.167 -35.5 -85.5 -35.5zM752.999 1228
c-33.333 0 -61.833 11.833 -85.5 35.5s-35.5 52.167 -35.5 85.5s11.833 61.833 35.5 85.5s52.167 35.5 85.5 35.5s61.833 -11.833 85.5 -35.5s35.5 -52.167 35.5 -85.5s-11.833 -61.833 -35.5 -85.5s-52.167 -35.5 -85.5 -35.5z" />
    <glyph glyph-name="Amacron" unicode="&#x100;" horiz-adv-x="1380" 
d="M1122 0l-145 413h-574l-145 -413h-189l532 1443h178l532 -1443h-189zM682 1210l-226 -644h468l-226 644h-16zM1027 1620h-674v136h674v-136z" />
    <glyph glyph-name="amacron" unicode="&#x101;" horiz-adv-x="1130" 
d="M494 132c88.667 0 162.167 25.6689 220.5 77.002s87.5 115.666 87.5 192.999v99l-290 -19c-81.333 -5.33301 -141 -22.333 -179 -51s-57 -70.334 -57 -125.001c0 -54 20.333 -96.5 61 -127.5s93 -46.5 157 -46.5zM462 -18.998c-106 0 -193.166 29.168 -261.499 87.501
s-102.5 136.166 -102.5 233.499c0 96 34 171.333 102 226s165 85.667 291 93l311 19v98c0 66.667 -20.667 117.667 -62 153s-102 53 -182 53c-64.667 0 -118.334 -11.667 -161.001 -35s-70 -56.333 -82 -99h-174c11.333 86 55.833 155.333 133.5 208s174.167 79 289.5 79
c130.667 0 231.667 -31.667 303 -95s107 -151.333 107 -264v-738h-164v159h-16c-34.667 -57.333 -80.667 -101.333 -138 -132s-122 -46 -194 -46zM901.001 1286h-674v136h674v-136z" />
    <glyph glyph-name="Abreve" unicode="&#x102;" horiz-adv-x="1380" 
d="M1122 0l-145 413h-574l-145 -413h-189l532 1443h178l532 -1443h-189zM682 1210l-226 -644h468l-226 644h-16zM326 1873h153.998c0 -52.667 18.833 -94.667 56.5 -126s88.834 -47 153.501 -47s115.834 15.667 153.501 47s56.5 73.333 56.5 126h154
c0 -90 -32.667 -162.167 -98 -216.5s-154 -81.5 -266 -81.5s-200.667 27.167 -266 81.5s-98 126.5 -98 216.5z" />
    <glyph glyph-name="abreve" unicode="&#x103;" horiz-adv-x="1130" 
d="M494 132c88.667 0 162.167 25.6689 220.5 77.002s87.5 115.666 87.5 192.999v99l-290 -19c-81.333 -5.33301 -141 -22.333 -179 -51s-57 -70.334 -57 -125.001c0 -54 20.333 -96.5 61 -127.5s93 -46.5 157 -46.5zM462 -18.998c-106 0 -193.166 29.168 -261.499 87.501
s-102.5 136.166 -102.5 233.499c0 96 34 171.333 102 226s165 85.667 291 93l311 19v98c0 66.667 -20.667 117.667 -62 153s-102 53 -182 53c-64.667 0 -118.334 -11.667 -161.001 -35s-70 -56.333 -82 -99h-174c11.333 86 55.833 155.333 133.5 208s174.167 79 289.5 79
c130.667 0 231.667 -31.667 303 -95s107 -151.333 107 -264v-738h-164v159h-16c-34.667 -57.333 -80.667 -101.333 -138 -132s-122 -46 -194 -46zM198.001 1556h154c0 -59.333 18.5 -107.5 55.5 -144.5s88.5 -55.5 154.5 -55.5s117.5 18.5 154.5 55.5
s55.5 85.167 55.5 144.5h154c0 -96.667 -32.667 -175.5 -98 -236.5s-154 -91.5 -266 -91.5s-200.667 30.5 -266 91.5s-98 139.833 -98 236.5z" />
    <glyph glyph-name="Aogonek" unicode="&#x104;" horiz-adv-x="1380" 
d="M682 1210l-226 -644h468l-226 644h-16zM1120 8l-142.998 404.998h-574l-145 -413h-189l532 1443h178l532 -1443l-11 -5c-56 -25.333 -100.667 -52.666 -134 -81.999s-50 -63.666 -50 -102.999c0 -30.667 11 -54.667 33 -72s48.333 -26 79 -26c28 0 50 2 66 6v-134
c-30.667 -10.667 -65.334 -16 -104.001 -16c-72.667 0 -131.334 19.5 -176.001 58.5s-67 87.5 -67 145.5c0 46.667 16 91 48 133s73.667 76.333 125 103z" />
    <glyph glyph-name="aogonek" unicode="&#x105;" horiz-adv-x="1130" 
d="M494 132c88 0 161.333 25.6699 220 77.0029s88 115.666 88 192.999v99l-290 -19c-81.333 -5.33301 -141 -22.333 -179 -51s-57 -70.334 -57 -125.001c0 -52.667 20 -94.834 60 -126.501s92.667 -47.5 158 -47.5zM619 -227.997c0 54 17.999 102.502 53.999 145.502
s81.667 74.5 137 94.5v147h-16c-34.667 -57.333 -80.667 -101.333 -138 -132s-122 -46 -194 -46c-108 0 -195.667 29.667 -263 89s-101 136.666 -101 231.999s33.833 170.5 101.5 225.5s164.834 86.167 291.501 93.5l311 19v98c0 67.333 -20.833 118.5 -62.5 153.5
s-102.167 52.5 -181.5 52.5c-65.333 0 -119.166 -11.667 -161.499 -35s-69.5 -56.333 -81.5 -99h-174c11.333 86 55.833 155.333 133.5 208s174.167 79 289.5 79c129.333 0 230 -31.5 302 -94.5s108 -151.167 108 -264.5v-738l-12 -5c-54 -22 -96.5 -49.333 -127.5 -82
s-46.5 -67 -46.5 -103c0 -28.667 10.5 -52.167 31.5 -70.5s47.833 -27.5 80.5 -27.5c29.333 0 51.333 2 66 6v-134c-30 -10.667 -64.667 -16 -104 -16c-70.667 0 -128.834 19.167 -174.501 57.5s-68.5 87.166 -68.5 146.499z" />
    <glyph glyph-name="Cacute" unicode="&#x106;" horiz-adv-x="1466" 
d="M765 -34c-196 0 -351.169 67.668 -465.502 203.001s-171.5 319.333 -171.5 552s57 416.834 171 552.501s269 203.5 465 203.5c152 0 282 -43.333 390 -130s172.667 -199.667 194 -339h-183c-24 93.333 -72 167.166 -144 221.499s-157.667 81.5 -257 81.5
c-138.667 0 -248.5 -53 -329.5 -159s-121.5 -249.667 -121.5 -431s40.667 -324.833 122 -430.5s191.333 -158.5 330 -158.5c100.667 0 186.834 24.167 258.501 72.5s118.834 114.166 141.501 197.499h183c-24 -132.667 -88.833 -238.5 -194.5 -317.5
s-235.167 -118.5 -388.5 -118.5zM657.998 1577l310 298h226l-332 -298h-204z" />
    <glyph glyph-name="cacute" unicode="&#x107;" horiz-adv-x="1146" 
d="M1054 748l-174.001 -0.000976562c-14.667 56.667 -46.167 103.167 -94.5 139.5s-109.5 54.5 -183.5 54.5c-96.667 0 -173.5 -36 -230.5 -108s-85.5 -169 -85.5 -291c0 -124 28.667 -222.833 86 -296.5s134 -110.5 230 -110.5c72.667 0 133.167 16.333 181.5 49
s80.5 79.334 96.5 140.001h174c-16 -102 -63.667 -184.833 -143 -248.5s-182 -95.5 -308 -95.5c-151.333 0 -271.666 50.833 -360.999 152.5s-134 238.167 -134 409.5c0 168 44.667 302.333 134 403s209.333 151 360 151c126 0 228.833 -33 308.5 -99
s127.5 -149.333 143.5 -250zM485.999 1263l252 338h220l-278 -338h-194z" />
    <glyph glyph-name="Ccircumflex" unicode="&#x108;" horiz-adv-x="1466" 
d="M765 -34c-196 0 -351.169 67.668 -465.502 203.001s-171.5 319.333 -171.5 552s57 416.834 171 552.501s269 203.5 465 203.5c152 0 282 -43.333 390 -130s172.667 -199.667 194 -339h-183c-24 93.333 -72 167.166 -144 221.499s-157.667 81.5 -257 81.5
c-138.667 0 -248.5 -53 -329.5 -159s-121.5 -249.667 -121.5 -431s40.667 -324.833 122 -430.5s191.333 -158.5 330 -158.5c100.667 0 186.834 24.167 258.501 72.5s118.834 114.166 141.501 197.499h183c-24 -132.667 -88.833 -238.5 -194.5 -317.5
s-235.167 -118.5 -388.5 -118.5zM845.998 1875l300 -298h-202l-172 177h-16l-172 -177h-202l300 298h164z" />
    <glyph glyph-name="ccircumflex" unicode="&#x109;" horiz-adv-x="1146" 
d="M1054 748l-174.001 -0.000976562c-14.667 56.667 -46.167 103.167 -94.5 139.5s-109.5 54.5 -183.5 54.5c-96.667 0 -173.5 -36 -230.5 -108s-85.5 -169 -85.5 -291c0 -124 28.667 -222.833 86 -296.5s134 -110.5 230 -110.5c72.667 0 133.167 16.333 181.5 49
s80.5 79.334 96.5 140.001h174c-16 -102 -63.667 -184.833 -143 -248.5s-182 -95.5 -308 -95.5c-151.333 0 -271.666 50.833 -360.999 152.5s-134 238.167 -134 409.5c0 168 44.667 302.333 134 403s209.333 151 360 151c126 0 228.833 -33 308.5 -99
s127.5 -149.333 143.5 -250zM700.999 1568l282 -340h-198l-177 227h-16l-177 -227h-198l282 340h202z" />
    <glyph glyph-name="Cdotaccent" unicode="&#x10a;" horiz-adv-x="1466" 
d="M765 -34c-196 0 -351.169 67.668 -465.502 203.001s-171.5 319.333 -171.5 552s57 416.834 171 552.501s269 203.5 465 203.5c152 0 282 -43.333 390 -130s172.667 -199.667 194 -339h-183c-24 93.333 -72 167.166 -144 221.499s-157.667 81.5 -257 81.5
c-138.667 0 -248.5 -53 -329.5 -159s-121.5 -249.667 -121.5 -431s40.667 -324.833 122 -430.5s191.333 -158.5 330 -158.5c100.667 0 186.834 24.167 258.501 72.5s118.834 114.166 141.501 197.499h183c-24 -132.667 -88.833 -238.5 -194.5 -317.5
s-235.167 -118.5 -388.5 -118.5zM763.998 1577c-33.333 0 -61.833 11.833 -85.5 35.5s-35.5 52.167 -35.5 85.5s11.833 61.833 35.5 85.5s52.167 35.5 85.5 35.5s61.833 -11.833 85.5 -35.5s35.5 -52.167 35.5 -85.5s-11.833 -61.833 -35.5 -85.5s-52.167 -35.5 -85.5 -35.5
z" />
    <glyph glyph-name="cdotaccent" unicode="&#x10b;" horiz-adv-x="1146" 
d="M1054 748l-174.001 -0.000976562c-14.667 56.667 -46.167 103.167 -94.5 139.5s-109.5 54.5 -183.5 54.5c-96.667 0 -173.5 -36 -230.5 -108s-85.5 -169 -85.5 -291c0 -124 28.667 -222.833 86 -296.5s134 -110.5 230 -110.5c72.667 0 133.167 16.333 181.5 49
s80.5 79.334 96.5 140.001h174c-16 -102 -63.667 -184.833 -143 -248.5s-182 -95.5 -308 -95.5c-151.333 0 -271.666 50.833 -360.999 152.5s-134 238.167 -134 409.5c0 168 44.667 302.333 134 403s209.333 151 360 151c126 0 228.833 -33 308.5 -99
s127.5 -149.333 143.5 -250zM599.999 1287c-34.667 0 -64.667 12.5 -90 37.5s-38 55.167 -38 90.5c0 34.667 12.5 64.5 37.5 89.5s55.167 37.5 90.5 37.5s65.5 -12.5 90.5 -37.5s37.5 -54.833 37.5 -89.5c0 -35.333 -12.667 -65.5 -38 -90.5s-55.333 -37.5 -90 -37.5z" />
    <glyph glyph-name="Ccaron" unicode="&#x10c;" horiz-adv-x="1466" 
d="M765 -34c-196 0 -351.169 67.668 -465.502 203.001s-171.5 319.333 -171.5 552s57 416.834 171 552.501s269 203.5 465 203.5c152 0 282 -43.333 390 -130s172.667 -199.667 194 -339h-183c-24 93.333 -72 167.166 -144 221.499s-157.667 81.5 -257 81.5
c-138.667 0 -248.5 -53 -329.5 -159s-121.5 -249.667 -121.5 -431s40.667 -324.833 122 -430.5s191.333 -158.5 330 -158.5c100.667 0 186.834 24.167 258.501 72.5s118.834 114.166 141.501 197.499h183c-24 -132.667 -88.833 -238.5 -194.5 -317.5
s-235.167 -118.5 -388.5 -118.5zM845.998 1577h-164l-300 298h202l172 -177h16l172 177h202z" />
    <glyph glyph-name="ccaron" unicode="&#x10d;" horiz-adv-x="1146" 
d="M1054 748l-174.001 -0.000976562c-14.667 56.667 -46.167 103.167 -94.5 139.5s-109.5 54.5 -183.5 54.5c-96.667 0 -173.5 -36 -230.5 -108s-85.5 -169 -85.5 -291c0 -124 28.667 -222.833 86 -296.5s134 -110.5 230 -110.5c72.667 0 133.167 16.333 181.5 49
s80.5 79.334 96.5 140.001h174c-16 -102 -63.667 -184.833 -143 -248.5s-182 -95.5 -308 -95.5c-151.333 0 -271.666 50.833 -360.999 152.5s-134 238.167 -134 409.5c0 168 44.667 302.333 134 403s209.333 151 360 151c126 0 228.833 -33 308.5 -99
s127.5 -149.333 143.5 -250zM700.999 1228h-202l-282 340h198l177 -227h16l177 227h198z" />
    <glyph glyph-name="Dcaron" unicode="&#x10e;" horiz-adv-x="1487" 
d="M184 1443h495.001c214 0 381 -63.5 501 -190.5s180 -303.833 180 -530.5c0 -227.333 -59.833 -404.5 -179.5 -531.5s-286.834 -190.5 -501.501 -190.5h-495v1443zM364.001 1281v-1119h303c160.667 0 285.667 49 375 147s134 235 134 411
c0 176.667 -44.833 314.334 -134.5 413.001s-214.5 148 -374.5 148h-303zM676.001 1575h-164l-300 298h202l172 -177h16l172 177h202z" />
    <glyph glyph-name="dcaron" unicode="&#x10f;" horiz-adv-x="1387" 
d="M1237 1506h170l-50 -488h-120v488zM561 -19c-138 0 -247.999 50.668 -329.999 152.001s-123 236.666 -123 405.999c0 168.667 41.167 303.834 123.5 405.501s192.166 152.5 329.499 152.5c75.333 0 142.833 -16.833 202.5 -50.5s104.834 -79.834 135.501 -138.501h15v598
h172v-1506h-164v172h-16c-34 -60 -81.333 -106.833 -142 -140.5s-128.334 -50.5 -203.001 -50.5zM601.001 942.001c-98 0 -175.001 -35.833 -231.001 -107.5s-84 -170.167 -84 -295.5c0 -126 27.833 -224.667 83.5 -296s132.834 -107 231.501 -107c98 0 175.333 36 232 108
s85 170.333 85 295c0 123.333 -28.5 221.333 -85.5 294s-134.167 109 -231.5 109z" />
    <glyph glyph-name="Dcroat" unicode="&#x110;" horiz-adv-x="1492" 
d="M369 162l303 -0.000976562c160.667 0 285.667 49 375 147s134 235 134 411c0 176.667 -44.833 314.334 -134.5 413.001s-214.5 148 -374.5 148h-303v-455h243v-163h-243v-501zM189 1443h495.001c214 0 381 -63.5 501 -190.5s180 -303.833 180 -530.5
c0 -227.333 -59.833 -404.5 -179.5 -531.5s-286.834 -190.5 -501.501 -190.5h-495v663h-163v163h163v617z" />
    <glyph glyph-name="dcroat" unicode="&#x111;" horiz-adv-x="1258" 
d="M601 136c98 0 175.332 36 231.999 108s85 170.333 85 295c0 123.333 -28.5 221.333 -85.5 294s-134.167 109 -231.5 109c-98 0 -175 -35.833 -231 -107.5s-84 -170.167 -84 -295.5c0 -126 27.833 -224.667 83.5 -296s132.834 -107 231.501 -107zM1230 1401
l0.000976562 -123.999h-144v-1277h-164v172h-16c-34 -60 -81.333 -106.833 -142 -140.5s-128.334 -50.5 -203.001 -50.5c-138 0 -248 50.667 -330 152s-123 236.666 -123 405.999c0 168.667 41.167 303.834 123.5 405.501s192.166 152.5 329.499 152.5
c75.333 0 142.833 -16.833 202.5 -50.5s104.834 -79.834 135.501 -138.501h15v369h-260v124h260v105h172v-105h144z" />
    <glyph glyph-name="Emacron" unicode="&#x112;" horiz-adv-x="1220" 
d="M1078 162v-162h-894v1443h894v-162h-714v-463h677v-160h-677v-496h714zM968 1620h-674v136h674v-136z" />
    <glyph glyph-name="emacron" unicode="&#x113;" horiz-adv-x="1170" 
d="M592 945c-86 0 -156.667 -29 -212 -87s-86.333 -134.667 -93 -230h594c-2 95.333 -29.333 172 -82 230s-121.667 87 -207 87zM876 279l171.999 0.000976562c-26 -93.333 -78.833 -166.333 -158.5 -219s-178.167 -79 -295.5 -79
c-149.333 0 -267.666 50.167 -354.999 150.5s-131 235.833 -131 406.5c0 170 44 305.667 132 407s206 152 354 152c145.333 0 259.666 -48.333 342.999 -145s125 -229 125 -397v-66h-775v-8c4.66699 -106.667 34.834 -191.334 90.501 -254.001s129.167 -94 220.5 -94
c139.333 0 232 48.667 278 146zM930.999 1286h-674v136h674v-136z" />
    <glyph glyph-name="Ebreve" unicode="&#x114;" horiz-adv-x="1220" 
d="M1078 162v-162h-894v1443h894v-162h-714v-463h677v-160h-677v-496h714zM267 1873h153.998c0 -52.667 18.833 -94.667 56.5 -126s88.834 -47 153.501 -47s115.834 15.667 153.501 47s56.5 73.333 56.5 126h154c0 -90 -32.667 -162.167 -98 -216.5s-154 -81.5 -266 -81.5
s-200.667 27.167 -266 81.5s-98 126.5 -98 216.5z" />
    <glyph glyph-name="ebreve" unicode="&#x115;" horiz-adv-x="1170" 
d="M592 945c-86 0 -156.667 -29 -212 -87s-86.333 -134.667 -93 -230h594c-2 95.333 -29.333 172 -82 230s-121.667 87 -207 87zM876 279l171.999 0.000976562c-26 -93.333 -78.833 -166.333 -158.5 -219s-178.167 -79 -295.5 -79
c-149.333 0 -267.666 50.167 -354.999 150.5s-131 235.833 -131 406.5c0 170 44 305.667 132 407s206 152 354 152c145.333 0 259.666 -48.333 342.999 -145s125 -229 125 -397v-66h-775v-8c4.66699 -106.667 34.834 -191.334 90.501 -254.001s129.167 -94 220.5 -94
c139.333 0 232 48.667 278 146zM227.999 1556h154c0 -59.333 18.5 -107.5 55.5 -144.5s88.5 -55.5 154.5 -55.5s117.5 18.5 154.5 55.5s55.5 85.167 55.5 144.5h154c0 -96.667 -32.667 -175.5 -98 -236.5s-154 -91.5 -266 -91.5s-200.667 30.5 -266 91.5
s-98 139.833 -98 236.5z" />
    <glyph glyph-name="Edotaccent" unicode="&#x116;" horiz-adv-x="1220" 
d="M1078 162v-162h-894v1443h894v-162h-714v-463h677v-160h-677v-496h714zM631 1575c-33.333 0 -61.833 11.833 -85.5 35.5s-35.5 52.167 -35.5 85.5s11.833 61.833 35.5 85.5s52.167 35.5 85.5 35.5s61.833 -11.833 85.5 -35.5s35.5 -52.167 35.5 -85.5
s-11.833 -61.833 -35.5 -85.5s-52.167 -35.5 -85.5 -35.5z" />
    <glyph glyph-name="edotaccent" unicode="&#x117;" horiz-adv-x="1170" 
d="M592 945c-86 0 -156.667 -29 -212 -87s-86.333 -134.667 -93 -230h594c-2 95.333 -29.333 172 -82 230s-121.667 87 -207 87zM876 279l171.999 0.000976562c-26 -93.333 -78.833 -166.333 -158.5 -219s-178.167 -79 -295.5 -79
c-149.333 0 -267.666 50.167 -354.999 150.5s-131 235.833 -131 406.5c0 170 44 305.667 132 407s206 152 354 152c145.333 0 259.666 -48.333 342.999 -145s125 -229 125 -397v-66h-775v-8c4.66699 -106.667 34.834 -191.334 90.501 -254.001s129.167 -94 220.5 -94
c139.333 0 232 48.667 278 146zM593.999 1287c-34.667 0 -64.667 12.5 -90 37.5s-38 55.167 -38 90.5c0 34.667 12.5 64.5 37.5 89.5s55.167 37.5 90.5 37.5s65.5 -12.5 90.5 -37.5s37.5 -54.833 37.5 -89.5c0 -35.333 -12.667 -65.5 -38 -90.5s-55.333 -37.5 -90 -37.5z
" />
    <glyph glyph-name="Eogonek" unicode="&#x118;" horiz-adv-x="1220" 
d="M824 0l-639.999 0.000976562v1443h894v-162h-714v-463h677v-160h-677v-496h714v-150l-42 -16c-52.667 -20 -96.5 -45.833 -131.5 -77.5s-52.5 -67.834 -52.5 -108.501c0 -30.667 11 -54.667 33 -72s48.333 -26 79 -26c28 0 50 2 66 6v-134
c-30.667 -10.667 -65.334 -16 -104.001 -16c-72.667 0 -131.334 19.5 -176.001 58.5s-67 87.5 -67 145.5c0 44.667 12.833 85.5 38.5 122.5s59.834 66.833 102.501 89.5v16z" />
    <glyph glyph-name="eogonek" unicode="&#x119;" horiz-adv-x="1170" 
d="M592 945c-86 0 -156.667 -29 -212 -87s-86.333 -134.667 -93 -230h594c-2 95.333 -29.333 172 -82 230s-121.667 87 -207 87zM545 -228c0 82 43.668 151.334 131.001 208.001v16c-20 -10 -47.333 -15 -82 -15c-149.333 0 -267.666 50.167 -354.999 150.5
s-131 235.833 -131 406.5c0 170 44 305.667 132 407s206 152 354 152c145.333 0 259.666 -48.333 342.999 -145s125 -229 125 -397v-66h-775v-8c4.66699 -106.667 34.834 -191.334 90.501 -254.001s129.167 -94 220.5 -94c139.333 0 232 48.667 278 146h172
c-8.66699 -34 -28.167 -73.333 -58.5 -118s-66.166 -83.667 -107.499 -117c-56.667 -46.667 -98.834 -88 -126.501 -124s-41.5 -72.667 -41.5 -110c0 -30.667 11 -54.667 33 -72s48.333 -26 79 -26c28 0 50 2 66 6v-134c-30.667 -10.667 -65.334 -16 -104.001 -16
c-72.667 0 -131.334 19.5 -176.001 58.5s-67 87.5 -67 145.5z" />
    <glyph glyph-name="Ecaron" unicode="&#x11a;" horiz-adv-x="1220" 
d="M1078 162v-162h-894v1443h894v-162h-714v-463h677v-160h-677v-496h714zM713 1575h-164l-300 298h202l172 -177h16l172 177h202z" />
    <glyph glyph-name="ecaron" unicode="&#x11b;" horiz-adv-x="1170" 
d="M592 945c-86 0 -156.667 -29 -212 -87s-86.333 -134.667 -93 -230h594c-2 95.333 -29.333 172 -82 230s-121.667 87 -207 87zM876 279l171.999 0.000976562c-26 -93.333 -78.833 -166.333 -158.5 -219s-178.167 -79 -295.5 -79
c-149.333 0 -267.666 50.167 -354.999 150.5s-131 235.833 -131 406.5c0 170 44 305.667 132 407s206 152 354 152c145.333 0 259.666 -48.333 342.999 -145s125 -229 125 -397v-66h-775v-8c4.66699 -106.667 34.834 -191.334 90.501 -254.001s129.167 -94 220.5 -94
c139.333 0 232 48.667 278 146zM694.999 1228h-202l-282 340h198l177 -227h16l177 227h198z" />
    <glyph glyph-name="Gcircumflex" unicode="&#x11c;" horiz-adv-x="1529" 
d="M1395 558c0 -178 -56.001 -321.168 -168.001 -429.501s-260.333 -162.5 -445 -162.5c-199.333 0 -358.166 68.333 -476.499 205s-177.5 320.334 -177.5 551.001c0 228 59.667 410.833 179 548.5s277.666 206.5 474.999 206.5c160 0 294.167 -41.667 402.5 -125
s175.5 -196.333 201.5 -339h-183c-31.333 97.333 -82.666 171.333 -153.999 222s-160.333 76 -267 76c-142.667 0 -256.5 -53.333 -341.5 -160s-127.5 -249.667 -127.5 -429c0 -182 42.167 -325.833 126.5 -431.5s198.833 -158.5 343.5 -158.5
c129.333 0 233.833 37.667 313.5 113s119.5 174 119.5 296v35h-406v158h585v-176zM863.999 1873l300 -298h-202l-172 177h-16l-172 -177h-202l300 298h164z" />
    <glyph glyph-name="gcircumflex" unicode="&#x11d;" horiz-adv-x="1248" 
d="M918 555c0 118 -28.667 211.998 -86 281.998s-135.333 105 -234 105s-175.334 -34.667 -230.001 -104s-82 -163.666 -82 -282.999s27.333 -213.666 82 -282.999s131.334 -104 230.001 -104c99.333 0 177.5 35 234.5 105s85.5 164 85.5 282zM606 -414.002
c-128.667 0 -232.831 26.666 -312.498 79.999s-126.167 125 -139.5 215h182c9.33301 -44.667 37.666 -80 84.999 -106s109 -39 185 -39c96.667 0 172.167 22.5 226.5 67.5s81.5 107.167 81.5 186.5v212h-16c-34 -59.333 -80.333 -105.166 -139 -137.499
s-125 -48.5 -199 -48.5c-138.667 0 -248.667 49.167 -330 147.5s-122 228.833 -122 391.5s41 293.667 123 393s191.667 149 329 149c75.333 0 144 -17.167 206 -51.5s108.667 -80.5 140 -138.5h16v171h164v-1097c0 -120.667 -43.333 -216.667 -130 -288
s-203.334 -107 -350.001 -107zM695.003 1568l282 -340h-198l-177 227h-16l-177 -227h-198l282 340h202z" />
    <glyph glyph-name="Gbreve" unicode="&#x11e;" horiz-adv-x="1529" 
d="M1395 558c0 -178 -56.001 -321.168 -168.001 -429.501s-260.333 -162.5 -445 -162.5c-199.333 0 -358.166 68.333 -476.499 205s-177.5 320.334 -177.5 551.001c0 228 59.667 410.833 179 548.5s277.666 206.5 474.999 206.5c160 0 294.167 -41.667 402.5 -125
s175.5 -196.333 201.5 -339h-183c-31.333 97.333 -82.666 171.333 -153.999 222s-160.333 76 -267 76c-142.667 0 -256.5 -53.333 -341.5 -160s-127.5 -249.667 -127.5 -429c0 -182 42.167 -325.833 126.5 -431.5s198.833 -158.5 343.5 -158.5
c129.333 0 233.833 37.667 313.5 113s119.5 174 119.5 296v35h-406v158h585v-176zM417.999 1873h153.998c0 -52.667 18.833 -94.667 56.5 -126s88.834 -47 153.501 -47s115.834 15.667 153.501 47s56.5 73.333 56.5 126h154c0 -90 -32.667 -162.167 -98 -216.5
s-154 -81.5 -266 -81.5s-200.667 27.167 -266 81.5s-98 126.5 -98 216.5z" />
    <glyph glyph-name="gbreve" unicode="&#x11f;" horiz-adv-x="1248" 
d="M918 555c0 118 -28.667 211.998 -86 281.998s-135.333 105 -234 105s-175.334 -34.667 -230.001 -104s-82 -163.666 -82 -282.999s27.333 -213.666 82 -282.999s131.334 -104 230.001 -104c99.333 0 177.5 35 234.5 105s85.5 164 85.5 282zM606 -414.002
c-128.667 0 -232.831 26.666 -312.498 79.999s-126.167 125 -139.5 215h182c9.33301 -44.667 37.666 -80 84.999 -106s109 -39 185 -39c96.667 0 172.167 22.5 226.5 67.5s81.5 107.167 81.5 186.5v212h-16c-34 -59.333 -80.333 -105.166 -139 -137.499
s-125 -48.5 -199 -48.5c-138.667 0 -248.667 49.167 -330 147.5s-122 228.833 -122 391.5s41 293.667 123 393s191.667 149 329 149c75.333 0 144 -17.167 206 -51.5s108.667 -80.5 140 -138.5h16v171h164v-1097c0 -120.667 -43.333 -216.667 -130 -288
s-203.334 -107 -350.001 -107zM228.003 1556h154c0 -59.333 18.5 -107.5 55.5 -144.5s88.5 -55.5 154.5 -55.5s117.5 18.5 154.5 55.5s55.5 85.167 55.5 144.5h154c0 -96.667 -32.667 -175.5 -98 -236.5s-154 -91.5 -266 -91.5s-200.667 30.5 -266 91.5
s-98 139.833 -98 236.5z" />
    <glyph glyph-name="Gdotaccent" unicode="&#x120;" horiz-adv-x="1529" 
d="M1395 558c0 -178 -56.001 -321.168 -168.001 -429.501s-260.333 -162.5 -445 -162.5c-199.333 0 -358.166 68.333 -476.499 205s-177.5 320.334 -177.5 551.001c0 228 59.667 410.833 179 548.5s277.666 206.5 474.999 206.5c160 0 294.167 -41.667 402.5 -125
s175.5 -196.333 201.5 -339h-183c-31.333 97.333 -82.666 171.333 -153.999 222s-160.333 76 -267 76c-142.667 0 -256.5 -53.333 -341.5 -160s-127.5 -249.667 -127.5 -429c0 -182 42.167 -325.833 126.5 -431.5s198.833 -158.5 343.5 -158.5
c129.333 0 233.833 37.667 313.5 113s119.5 174 119.5 296v35h-406v158h585v-176zM781.999 1575c-33.333 0 -61.833 11.833 -85.5 35.5s-35.5 52.167 -35.5 85.5s11.833 61.833 35.5 85.5s52.167 35.5 85.5 35.5s61.833 -11.833 85.5 -35.5s35.5 -52.167 35.5 -85.5
s-11.833 -61.833 -35.5 -85.5s-52.167 -35.5 -85.5 -35.5z" />
    <glyph glyph-name="gdotaccent" unicode="&#x121;" horiz-adv-x="1248" 
d="M918 555c0 118 -28.667 211.998 -86 281.998s-135.333 105 -234 105s-175.334 -34.667 -230.001 -104s-82 -163.666 -82 -282.999s27.333 -213.666 82 -282.999s131.334 -104 230.001 -104c99.333 0 177.5 35 234.5 105s85.5 164 85.5 282zM606 -414.002
c-128.667 0 -232.831 26.666 -312.498 79.999s-126.167 125 -139.5 215h182c9.33301 -44.667 37.666 -80 84.999 -106s109 -39 185 -39c96.667 0 172.167 22.5 226.5 67.5s81.5 107.167 81.5 186.5v212h-16c-34 -59.333 -80.333 -105.166 -139 -137.499
s-125 -48.5 -199 -48.5c-138.667 0 -248.667 49.167 -330 147.5s-122 228.833 -122 391.5s41 293.667 123 393s191.667 149 329 149c75.333 0 144 -17.167 206 -51.5s108.667 -80.5 140 -138.5h16v171h164v-1097c0 -120.667 -43.333 -216.667 -130 -288
s-203.334 -107 -350.001 -107zM594.003 1287c-34.667 0 -64.667 12.5 -90 37.5s-38 55.167 -38 90.5c0 34.667 12.5 64.5 37.5 89.5s55.167 37.5 90.5 37.5s65.5 -12.5 90.5 -37.5s37.5 -54.833 37.5 -89.5c0 -35.333 -12.667 -65.5 -38 -90.5s-55.333 -37.5 -90 -37.5z" />
    <glyph glyph-name="Gcommaaccent" unicode="&#x122;" horiz-adv-x="1529" 
d="M1395 558c0 -178 -56.001 -321.168 -168.001 -429.501s-260.333 -162.5 -445 -162.5c-199.333 0 -358.166 68.333 -476.499 205s-177.5 320.334 -177.5 551.001c0 228 59.667 410.833 179 548.5s277.666 206.5 474.999 206.5c160 0 294.167 -41.667 402.5 -125
s175.5 -196.333 201.5 -339h-183c-31.333 97.333 -82.666 171.333 -153.999 222s-160.333 76 -267 76c-142.667 0 -256.5 -53.333 -341.5 -160s-127.5 -249.667 -127.5 -429c0 -182 42.167 -325.833 126.5 -431.5s198.833 -158.5 343.5 -158.5
c129.333 0 233.833 37.667 313.5 113s119.5 174 119.5 296v35h-406v158h585v-176zM784.999 -518.001h-167l102 377h182z" />
    <glyph glyph-name="gcommaaccent" unicode="&#x123;" horiz-adv-x="1248" 
d="M918 555c0 118 -28.667 211.998 -86 281.998s-135.333 105 -234 105s-175.334 -34.667 -230.001 -104s-82 -163.666 -82 -282.999s27.333 -213.666 82 -282.999s131.334 -104 230.001 -104c99.333 0 177.5 35 234.5 105s85.5 164 85.5 282zM606 -414.002
c-128.667 0 -232.831 26.666 -312.498 79.999s-126.167 125 -139.5 215h182c9.33301 -44.667 37.666 -80 84.999 -106s109 -39 185 -39c96.667 0 172.167 22.5 226.5 67.5s81.5 107.167 81.5 186.5v212h-16c-34 -59.333 -80.333 -105.166 -139 -137.499
s-125 -48.5 -199 -48.5c-138.667 0 -248.667 49.167 -330 147.5s-122 228.833 -122 391.5s41 293.667 123 393s191.667 149 329 149c75.333 0 144 -17.167 206 -51.5s108.667 -80.5 140 -138.5h16v171h164v-1097c0 -120.667 -43.333 -216.667 -130 -288
s-203.334 -107 -350.001 -107zM604.003 1663h167l-102 -377h-182z" />
    <glyph glyph-name="Hcircumflex" unicode="&#x124;" horiz-adv-x="1520" 
d="M1336 0h-180v657h-792v-657h-180v1443h180v-624h792v624h180v-1443zM842 1873l300 -298h-202l-172 177h-16l-172 -177h-202l300 298h164z" />
    <glyph glyph-name="hcircumflex" unicode="&#x125;" horiz-adv-x="1216" 
d="M172 0l0.000976562 1506h172v-598h16c27.333 60.667 69.166 107.334 125.499 140.001s125.166 49 206.499 49c114.667 0 205.334 -35.167 272.001 -105.5s100 -168.166 100 -293.499v-698h-172v656c0 190.667 -83 286 -249 286c-94.667 0 -168.167 -27.5 -220.5 -82.5
s-78.5 -128.833 -78.5 -221.5v-638h-172zM340.001 1936l300 -298h-202l-172 177h-16l-172 -177h-202l300 298h164z" />
    <glyph glyph-name="Hbar" unicode="&#x126;" horiz-adv-x="1520" 
d="M1156 819v256h-792v-256h792zM1472 1218v-143h-136v-1075h-180v657h-792v-657h-180v1075h-136v143h136v225h180v-225h792v225h180v-225h136z" />
    <glyph glyph-name="hbar" unicode="&#x127;" horiz-adv-x="1216" 
d="M344 908l16.001 -0.00195312c27.333 60.667 69.166 107.334 125.499 140.001s125.166 49 206.499 49c114.667 0 205.334 -35.167 272.001 -105.5s100 -168.166 100 -293.499v-698h-172v656c0 190.667 -83 286 -249 286c-94.667 0 -168.167 -27.5 -220.5 -82.5
s-78.5 -128.833 -78.5 -221.5v-638h-172v1277h-144v124h144v105h172v-105h260v-124h-260v-369z" />
    <glyph glyph-name="Itilde" unicode="&#x128;" horiz-adv-x="548" 
d="M364 0h-180v1443h180v-1443zM424 1575c-30 0 -57.498 5.83301 -82.498 17.5s-45.833 25.667 -62.5 42s-32.5 32.666 -47.5 48.999s-31.333 30.333 -49 42s-35.834 17.5 -54.501 17.5c-30 0 -52.667 -11.5 -68 -34.5s-24 -61.833 -26 -116.5h-136
c0 88.667 20.167 157.667 60.5 207s95.5 74 165.5 74c32 0 61.5 -5.83301 88.5 -17.5s49.333 -25.667 67 -42s34 -32.666 49 -48.999s30.167 -30.333 45.5 -42s30.666 -17.5 45.999 -17.5c58 0 89.667 50.333 95 151h135c0 -85.333 -20.5 -153.5 -61.5 -204.5
s-95.833 -76.5 -164.5 -76.5z" />
    <glyph glyph-name="itilde" unicode="&#x129;" horiz-adv-x="504" 
d="M166 0v1078h172v-1078h-172zM114 1388c-35.333 0 -60.5 -12 -75.5 -36s-22.5 -64.333 -22.5 -121h-142c0 90.667 20.5 161.834 61.5 213.501s97.833 77.5 170.5 77.5c29.333 0 56.833 -5.33301 82.5 -16s47.167 -23.667 64.5 -39s33.333 -30.833 48 -46.5
s29.5 -28.834 44.5 -39.501s29.833 -16 44.5 -16c35.333 0 60.5 12 75.5 36s22.5 64.333 22.5 121h142c0 -90.667 -20.5 -161.834 -61.5 -213.501s-97.833 -77.5 -170.5 -77.5c-29.333 0 -56.833 5.33301 -82.5 16s-47.167 23.834 -64.5 39.501s-33.333 31.167 -48 46.5
s-29.5 28.333 -44.5 39s-29.833 16 -44.5 16z" />
    <glyph glyph-name="Imacron" unicode="&#x12a;" horiz-adv-x="548" 
d="M364 0h-180v1443h180v-1443zM611 1620h-674v136h674v-136z" />
    <glyph glyph-name="imacron" unicode="&#x12b;" horiz-adv-x="504" 
d="M166 0v1078h172v-1078h-172zM589 1286h-674v136h674v-136z" />
    <glyph glyph-name="Ibreve" unicode="&#x12c;" horiz-adv-x="548" 
d="M364 0h-180v1443h180v-1443zM-90 1873h153.998c0 -52.667 18.833 -94.667 56.5 -126s88.834 -47 153.501 -47s115.834 15.667 153.501 47s56.5 73.333 56.5 126h154c0 -90 -32.667 -162.167 -98 -216.5s-154 -81.5 -266 -81.5s-200.667 27.167 -266 81.5
s-98 126.5 -98 216.5z" />
    <glyph glyph-name="ibreve" unicode="&#x12d;" horiz-adv-x="504" 
d="M166 0v1078h172v-1078h-172zM-114 1556h154c0 -59.333 18.5 -107.5 55.5 -144.5s88.5 -55.5 154.5 -55.5s117.5 18.5 154.5 55.5s55.5 85.167 55.5 144.5h154c0 -96.667 -32.667 -175.5 -98 -236.5s-154 -91.5 -266 -91.5s-200.667 30.5 -266 91.5s-98 139.833 -98 236.5
z" />
    <glyph glyph-name="Iogonek" unicode="&#x12e;" horiz-adv-x="548" 
d="M184 1443l180.002 0.000976562v-1443l-5 -3c-98 -58.667 -147 -121 -147 -187c0 -28.667 10.5 -52.167 31.5 -70.5s47.833 -27.5 80.5 -27.5c29.333 0 51.333 2 66 6v-134c-30 -10.667 -64.667 -16 -104 -16c-70.667 0 -128.834 19.167 -174.501 57.5
s-68.5 87.166 -68.5 146.499c0 45.333 12.167 87.833 36.5 127.5s59.166 73.167 104.499 100.5v1443z" />
    <glyph glyph-name="iogonek" unicode="&#x12f;" horiz-adv-x="504" 
d="M252 1297c-33.333 0 -61.666 11.833 -84.999 35.5s-35 51.834 -35 84.501s11.667 60.834 35 84.501s51.666 35.5 84.999 35.5s61.666 -11.833 84.999 -35.5s35 -51.834 35 -84.501s-11.667 -60.834 -35 -84.501s-51.666 -35.5 -84.999 -35.5zM166 4l0.00195312 1074h172
v-1078l-5 -3c-98 -58.667 -147 -121 -147 -187c0 -30.667 11 -54.667 33 -72s48.333 -26 79 -26c28 0 50 2 66 6v-134c-30.667 -10.667 -65.334 -16 -104.001 -16c-72.667 0 -131.334 19.5 -176.001 58.5s-67 87.5 -67 145.5c0 96 49.667 173.333 149 232z" />
    <glyph glyph-name="Idotaccent" unicode="&#x130;" horiz-adv-x="548" 
d="M364 0h-180v1443h180v-1443zM274 1575c-33.333 0 -61.833 11.833 -85.5 35.5s-35.5 52.167 -35.5 85.5s11.833 61.833 35.5 85.5s52.167 35.5 85.5 35.5s61.833 -11.833 85.5 -35.5s35.5 -52.167 35.5 -85.5s-11.833 -61.833 -35.5 -85.5s-52.167 -35.5 -85.5 -35.5z" />
    <glyph glyph-name="dotlessi" unicode="&#x131;" horiz-adv-x="504" 
d="M166 0v1078h172v-1078h-172z" />
    <glyph glyph-name="u0132" unicode="&#x132;" horiz-adv-x="1650" 
d="M364 0h-180v1443h180v-1443zM634 337h179.001c2 -60.667 24.333 -110 67 -148s97.667 -57 165 -57c77.333 0 136.833 23.167 178.5 69.5s62.5 113.5 62.5 201.5v1040h180v-1041c0 -137.333 -37.333 -244.333 -112 -321s-177.334 -115 -308.001 -115
c-121.333 0 -220.333 34.333 -297 103s-115 158 -115 268z" />
    <glyph glyph-name="u0133" unicode="&#x133;" horiz-adv-x="1032" 
d="M166 0v1078h172v-1078h-172zM252 1297c-33.333 0 -61.666 11.833 -84.999 35.5s-35 51.834 -35 84.501s11.667 60.834 35 84.501s51.666 35.5 84.999 35.5s61.666 -11.833 84.999 -35.5s35 -51.834 35 -84.501s-11.667 -60.834 -35 -84.501s-51.666 -35.5 -84.999 -35.5z
M854 1078l-0.000976562 -1131c0 -110.667 -26.667 -191.167 -80 -241.5s-136.666 -75.5 -249.999 -75.5h-30v147h26c60 0 102 12.667 126 38s36 68.333 36 129v1134h172zM767.999 1297c-33.333 0 -61.666 11.833 -84.999 35.5s-35 51.834 -35 84.501
s11.667 60.834 35 84.501s51.666 35.5 84.999 35.5s61.666 -11.833 84.999 -35.5s35 -51.834 35 -84.501s-11.667 -60.834 -35 -84.501s-51.666 -35.5 -84.999 -35.5z" />
    <glyph glyph-name="Jcircumflex" unicode="&#x134;" horiz-adv-x="1102" 
d="M86 337h179.001c2 -60.667 24.333 -110 67 -148s97.667 -57 165 -57c77.333 0 136.833 23.167 178.5 69.5s62.5 113.5 62.5 201.5v1040h180v-1041c0 -137.333 -37.333 -244.333 -112 -321s-177.334 -115 -308.001 -115c-121.333 0 -220.333 34.333 -297 103
s-115 158 -115 268zM910.001 1873l300 -298h-202l-172 177h-16l-172 -177h-202l300 298h164z" />
    <glyph glyph-name="jcircumflex" unicode="&#x135;" horiz-adv-x="504" 
d="M332 1078l-0.000976562 -1131c0 -110.667 -26.667 -191.167 -80 -241.5s-136.666 -75.5 -249.999 -75.5h-30v147h26c60 0 102 12.667 126 38s36 68.333 36 129v1134h172zM354.999 1568l282 -340h-198l-177 227h-16l-177 -227h-198l282 340h202z" />
    <glyph glyph-name="Kcommaaccent" unicode="&#x136;" horiz-adv-x="1349" 
d="M364 0h-180v1443h180v-701h16l632 701h226l-577 -623l630 -820h-233l-521 695l-173 -191v-504zM656 -518h-167l102 377h182z" />
    <glyph glyph-name="kcommaaccent" unicode="&#x137;" horiz-adv-x="1112" 
d="M360 607l468 471h211l-464 -462l495 -616h-219l-404 505l-103 -96v-409h-172v1506h172v-899h16zM606 -518h-167l102 377h182z" />
    <glyph glyph-name="Lacute" unicode="&#x139;" horiz-adv-x="1163" 
d="M1060 162v-162h-876v1443h180v-1281h696zM168 1575l310 298h226l-332 -298h-204z" />
    <glyph glyph-name="lacute" unicode="&#x13a;" horiz-adv-x="516" 
d="M172 0v1506h172v-1506h-172zM152 1638l310 298h226l-332 -298h-204z" />
    <glyph glyph-name="Lcommaaccent" unicode="&#x13b;" horiz-adv-x="1163" 
d="M1060 162v-162h-876v1443h180v-1281h696zM625 -518h-167l102 377h182z" />
    <glyph glyph-name="lcommaaccent" unicode="&#x13c;" horiz-adv-x="516" 
d="M172 0v1506h172v-1506h-172zM261 -518h-167l102 377h182z" />
    <glyph glyph-name="Lcaron" unicode="&#x13d;" horiz-adv-x="1163" 
d="M589 1443h170l-50 -488h-120v488zM1060 162v-162h-876v1443h180v-1281h696z" />
    <glyph glyph-name="lcaron" unicode="&#x13e;" horiz-adv-x="645" 
d="M495 1506h170l-50 -488h-120v488zM172 0v1506h172v-1506h-172z" />
    <glyph glyph-name="Lslash" unicode="&#x141;" horiz-adv-x="1163" 
d="M364 162h696v-162h-876v719l-166 -76v143l166 76v581h180v-499l292 133v-143l-292 -133v-639z" />
    <glyph glyph-name="lslash" unicode="&#x142;" horiz-adv-x="516" 
d="M472 994v-143l-128 -61v-790h-172v707l-128 -61v143l128 61v656h172v-573z" />
    <glyph glyph-name="Nacute" unicode="&#x143;" horiz-adv-x="1520" 
d="M362 0h-178v1443h175l783 -1123h16v1123h178v-1443h-175l-783 1119h-16v-1119zM654 1575l310 298h226l-332 -298h-204z" />
    <glyph glyph-name="nacute" unicode="&#x144;" horiz-adv-x="1195" 
d="M162 0v1078h164v-170h16c57.333 126 165.333 189 324 189c120.667 0 213.667 -34.5 279 -103.5s98 -167.5 98 -295.5v-698h-172v656c0 96.667 -20.833 168.5 -62.5 215.5s-105.5 70.5 -191.5 70.5c-86.667 0 -155.5 -27.167 -206.5 -81.5s-76.5 -128.5 -76.5 -222.5v-638
h-172zM489 1263l252 338h220l-278 -338h-194z" />
    <glyph glyph-name="Ncommaaccent" unicode="&#x145;" horiz-adv-x="1520" 
d="M362 0h-178v1443h175l783 -1123h16v1123h178v-1443h-175l-783 1119h-16v-1119zM763 -518h-167l102 377h182z" />
    <glyph glyph-name="ncommaaccent" unicode="&#x146;" horiz-adv-x="1195" 
d="M162 0v1078h164v-170h16c57.333 126 165.333 189 324 189c120.667 0 213.667 -34.5 279 -103.5s98 -167.5 98 -295.5v-698h-172v656c0 96.667 -20.833 168.5 -62.5 215.5s-105.5 70.5 -191.5 70.5c-86.667 0 -155.5 -27.167 -206.5 -81.5s-76.5 -128.5 -76.5 -222.5v-638
h-172zM606 -518h-167l102 377h182z" />
    <glyph glyph-name="Ncaron" unicode="&#x147;" horiz-adv-x="1520" 
d="M362 0h-178v1443h175l783 -1123h16v1123h178v-1443h-175l-783 1119h-16v-1119zM842 1575h-164l-300 298h202l172 -177h16l172 177h202z" />
    <glyph glyph-name="ncaron" unicode="&#x148;" horiz-adv-x="1195" 
d="M162 0v1078h164v-170h16c57.333 126 165.333 189 324 189c120.667 0 213.667 -34.5 279 -103.5s98 -167.5 98 -295.5v-698h-172v656c0 96.667 -20.833 168.5 -62.5 215.5s-105.5 70.5 -191.5 70.5c-86.667 0 -155.5 -27.167 -206.5 -81.5s-76.5 -128.5 -76.5 -222.5v-638
h-172zM704 1228h-202l-282 340h198l177 -227h16l177 227h198z" />
    <glyph glyph-name="Omacron" unicode="&#x14c;" horiz-adv-x="1579" 
d="M791 1477c204.667 0 365.834 -67.833 483.501 -203.5s176.5 -319.5 176.5 -551.5s-58.833 -416 -176.5 -552s-278.834 -204 -483.501 -204c-206 0 -368 68 -486 204s-177 320 -177 552s59.5 415.833 178.5 551.5s280.5 203.5 484.5 203.5zM791 1311
c-146.667 0 -263 -53 -349 -159s-129 -249.333 -129 -430s42.5 -324.167 127.5 -430.5s201.833 -159.5 350.5 -159.5c147.333 0 263.333 53.333 348 160s127 250 127 430c0 181.333 -42.333 324.833 -127 430.5s-200.667 158.5 -348 158.5zM1128 1620h-674v136h674v-136z
" />
    <glyph glyph-name="omacron" unicode="&#x14d;" horiz-adv-x="1210" 
d="M605 136c102 0 180.667 35.167 236 105.5s83 169.5 83 297.5s-27.667 227.167 -83 297.5s-134 105.5 -236 105.5s-180.667 -35.167 -236 -105.5s-83 -169.5 -83 -297.5s27.667 -227.167 83 -297.5s134 -105.5 236 -105.5zM605 -19c-153.333 0 -274.5 49.833 -363.5 149.5
s-133.5 235.834 -133.5 408.501c0 173.333 44.333 309.666 133 408.999s210 149 364 149s275.333 -49.667 364 -149s133 -235.666 133 -408.999c0 -172.667 -44.5 -308.834 -133.5 -408.501s-210.167 -149.5 -363.5 -149.5zM942 1286h-674v136h674v-136z" />
    <glyph glyph-name="Obreve" unicode="&#x14e;" horiz-adv-x="1579" 
d="M791 1477c204.667 0 365.834 -67.833 483.501 -203.5s176.5 -319.5 176.5 -551.5s-58.833 -416 -176.5 -552s-278.834 -204 -483.501 -204c-206 0 -368 68 -486 204s-177 320 -177 552s59.5 415.833 178.5 551.5s280.5 203.5 484.5 203.5zM791 1311
c-146.667 0 -263 -53 -349 -159s-129 -249.333 -129 -430s42.5 -324.167 127.5 -430.5s201.833 -159.5 350.5 -159.5c147.333 0 263.333 53.333 348 160s127 250 127 430c0 181.333 -42.333 324.833 -127 430.5s-200.667 158.5 -348 158.5zM427 1873h153.998
c0 -52.667 18.833 -94.667 56.5 -126s88.834 -47 153.501 -47s115.834 15.667 153.501 47s56.5 73.333 56.5 126h154c0 -90 -32.667 -162.167 -98 -216.5s-154 -81.5 -266 -81.5s-200.667 27.167 -266 81.5s-98 126.5 -98 216.5z" />
    <glyph glyph-name="obreve" unicode="&#x14f;" horiz-adv-x="1210" 
d="M605 136c102 0 180.667 35.167 236 105.5s83 169.5 83 297.5s-27.667 227.167 -83 297.5s-134 105.5 -236 105.5s-180.667 -35.167 -236 -105.5s-83 -169.5 -83 -297.5s27.667 -227.167 83 -297.5s134 -105.5 236 -105.5zM605 -19c-153.333 0 -274.5 49.833 -363.5 149.5
s-133.5 235.834 -133.5 408.501c0 173.333 44.333 309.666 133 408.999s210 149 364 149s275.333 -49.667 364 -149s133 -235.666 133 -408.999c0 -172.667 -44.5 -308.834 -133.5 -408.501s-210.167 -149.5 -363.5 -149.5zM239 1556h154c0 -59.333 18.5 -107.5 55.5 -144.5
s88.5 -55.5 154.5 -55.5s117.5 18.5 154.5 55.5s55.5 85.167 55.5 144.5h154c0 -96.667 -32.667 -175.5 -98 -236.5s-154 -91.5 -266 -91.5s-200.667 30.5 -266 91.5s-98 139.833 -98 236.5z" />
    <glyph glyph-name="Ohungarumlaut" unicode="&#x150;" horiz-adv-x="1579" 
d="M791 1477c204.667 0 365.834 -67.833 483.501 -203.5s176.5 -319.5 176.5 -551.5s-58.833 -416 -176.5 -552s-278.834 -204 -483.501 -204c-206 0 -368 68 -486 204s-177 320 -177 552s59.5 415.833 178.5 551.5s280.5 203.5 484.5 203.5zM791 1311
c-146.667 0 -263 -53 -349 -159s-129 -249.333 -129 -430s42.5 -324.167 127.5 -430.5s201.833 -159.5 350.5 -159.5c147.333 0 263.333 53.333 348 160s127 250 127 430c0 181.333 -42.333 324.833 -127 430.5s-200.667 158.5 -348 158.5zM841 1575l310 298h226l-332 -298
h-204zM427 1575l310 298h226l-332 -298h-204z" />
    <glyph glyph-name="ohungarumlaut" unicode="&#x151;" horiz-adv-x="1210" 
d="M605 136c102 0 180.667 35.167 236 105.5s83 169.5 83 297.5s-27.667 227.167 -83 297.5s-134 105.5 -236 105.5s-180.667 -35.167 -236 -105.5s-83 -169.5 -83 -297.5s27.667 -227.167 83 -297.5s134 -105.5 236 -105.5zM605 -19c-153.333 0 -274.5 49.833 -363.5 149.5
s-133.5 235.834 -133.5 408.501c0 173.333 44.333 309.666 133 408.999s210 149 364 149s275.333 -49.667 364 -149s133 -235.666 133 -408.999c0 -172.667 -44.5 -308.834 -133.5 -408.501s-210.167 -149.5 -363.5 -149.5zM670 1263l252 338h210l-280 -338h-182zM270 1263
l252 338h210l-280 -338h-182z" />
    <glyph glyph-name="OE" unicode="&#x152;" horiz-adv-x="2325" 
d="M801 1311c-150.667 0 -269.667 -52.667 -357 -158s-131 -249 -131 -431c0 -183.333 43.5 -327.5 130.5 -432.5s206.167 -157.5 357.5 -157.5c144.667 0 258.667 52.5 342 157.5s125 249.167 125 432.5c0 182.667 -41.5 326.5 -124.5 431.5s-197.167 157.5 -342.5 157.5z
M1289 0l-0.000976562 246.999h-16c-44 -84 -111.167 -151.833 -201.5 -203.5s-187.166 -77.5 -290.499 -77.5c-200.667 0 -359.667 67.833 -477 203.5s-176 319.834 -176 552.501c0 231.333 58.833 415 176.5 551s276.5 204 476.5 204c101.333 0 197.5 -25 288.5 -75
s158.833 -115.333 203.5 -196h16v237h894v-162h-732v-463h695v-160h-695v-496h732v-162h-894z" />
    <glyph glyph-name="oe" unicode="&#x153;" horiz-adv-x="1987" 
d="M1411 -19c-89.333 0 -169.831 20.832 -241.498 62.499s-121.167 96.834 -148.5 165.501h-16c-28 -68.667 -78.5 -123.834 -151.5 -165.501s-155.833 -62.5 -248.5 -62.5c-154 0 -275.333 49.833 -364 149.5s-133 235.834 -133 408.501s44.333 308.834 133 408.501
s210 149.5 364 149.5c90 0 170.333 -20.5 241 -61.5s124 -97.833 160 -170.5h16c36 72.667 88.333 129.5 157 170.5s146 61.5 232 61.5c145.333 0 259.666 -48.167 342.999 -144.5s125 -228.5 125 -396.5v-66h-775v-8c4.66699 -106.667 34.834 -191.334 90.501 -254.001
s129.167 -94 220.5 -94c140 0 232.667 48.333 278 145h172c-26.667 -93.333 -79.834 -166.333 -159.501 -219s-177.834 -79 -294.501 -79zM1409 945.999c-85.333 0 -155.832 -28.833 -211.499 -86.5s-86.834 -134.5 -93.501 -230.5h594c-2 95.333 -29.333 172 -82 230
s-121.667 87 -207 87zM605.003 135.999c101.333 0 179.833 35.167 235.5 105.5s83.5 169.5 83.5 297.5c0 128.667 -27.833 228 -83.5 298s-134.167 105 -235.5 105s-179.833 -35 -235.5 -105s-83.5 -169.333 -83.5 -298c0 -128 27.833 -227.167 83.5 -297.5
s134.167 -105.5 235.5 -105.5z" />
    <glyph glyph-name="Racute" unicode="&#x154;" horiz-adv-x="1338" 
d="M364 1283v-552.002h355c92.667 0 164.167 23.833 214.5 71.5s75.5 115.834 75.5 204.501c0 86.667 -26.333 154.334 -79 203.001s-125.667 73 -219 73h-347zM364 570.998v-571h-180v1443h551c139.333 0 250.833 -39.167 334.5 -117.5s125.5 -182.5 125.5 -312.5
c0 -100.667 -25.667 -187.667 -77 -261s-122.333 -124.333 -213 -153l334 -599h-211l-309 571h-355zM503 1575l310 298h226l-332 -298h-204z" />
    <glyph glyph-name="racute" unicode="&#x155;" horiz-adv-x="765" 
d="M162 0l-0.000976562 1078h164v-160h16c16 52.667 52 95.667 108 129s119.667 50 191 50c32.667 0 61.334 -1.66699 86.001 -5v-172c-23.333 6.66699 -60 10 -110 10c-82 0 -149.667 -24.667 -203 -74s-80 -112 -80 -188v-668h-172zM263.999 1263l252 338h220l-278 -338
h-194z" />
    <glyph glyph-name="Rcommaaccent" unicode="&#x156;" horiz-adv-x="1338" 
d="M364 1283v-552.002h355c92.667 0 164.167 23.833 214.5 71.5s75.5 115.834 75.5 204.501c0 86.667 -26.333 154.334 -79 203.001s-125.667 73 -219 73h-347zM364 570.998v-571h-180v1443h551c139.333 0 250.833 -39.167 334.5 -117.5s125.5 -182.5 125.5 -312.5
c0 -100.667 -25.667 -187.667 -77 -261s-122.333 -124.333 -213 -153l334 -599h-211l-309 571h-355zM612 -518.002h-167l102 377h182z" />
    <glyph glyph-name="rcommaaccent" unicode="&#x157;" horiz-adv-x="765" 
d="M162 0l-0.000976562 1078h164v-160h16c16 52.667 52 95.667 108 129s119.667 50 191 50c32.667 0 61.334 -1.66699 86.001 -5v-172c-23.333 6.66699 -60 10 -110 10c-82 0 -149.667 -24.667 -203 -74s-80 -112 -80 -188v-668h-172zM250.999 -518h-167l102 377h182z" />
    <glyph glyph-name="Rcaron" unicode="&#x158;" horiz-adv-x="1338" 
d="M364 1283v-552.002h355c92.667 0 164.167 23.833 214.5 71.5s75.5 115.834 75.5 204.501c0 86.667 -26.333 154.334 -79 203.001s-125.667 73 -219 73h-347zM364 570.998v-571h-180v1443h551c139.333 0 250.833 -39.167 334.5 -117.5s125.5 -182.5 125.5 -312.5
c0 -100.667 -25.667 -187.667 -77 -261s-122.333 -124.333 -213 -153l334 -599h-211l-309 571h-355zM691 1575h-164l-300 298h202l172 -177h16l172 177h202z" />
    <glyph glyph-name="rcaron" unicode="&#x159;" horiz-adv-x="765" 
d="M162 0l-0.000976562 1078h164v-160h16c16 52.667 52 95.667 108 129s119.667 50 191 50c32.667 0 61.334 -1.66699 86.001 -5v-172c-23.333 6.66699 -60 10 -110 10c-82 0 -149.667 -24.667 -203 -74s-80 -112 -80 -188v-668h-172zM478.999 1228h-202l-282 340h198
l177 -227h16l177 227h198z" />
    <glyph glyph-name="Sacute" unicode="&#x15a;" horiz-adv-x="1305" 
d="M115 377h182c11.333 -75.333 50.333 -135.333 117 -180s151.334 -67 254.001 -67c97.333 0 177.833 23.5 241.5 70.5s95.5 106.167 95.5 177.5c0 61.333 -23.333 112.166 -70 152.499s-119.667 73.166 -219 98.499l-185 48c-130.667 32.667 -225.667 80 -285 142
s-89 144.333 -89 247c0 122.667 46.833 221.834 140.5 297.501s216.834 113.5 369.501 113.5c139.333 0 256 -37.333 350 -112s144.667 -170.334 152 -287.001h-181c-12.667 74 -47.834 131.833 -105.501 173.5s-131.5 62.5 -221.5 62.5
c-96 0 -173.167 -22.167 -231.5 -66.5s-87.5 -102.833 -87.5 -175.5c0 -56.667 21.5 -102.667 64.5 -138s114.167 -65.666 213.5 -90.999l151 -40c149.333 -37.333 256.5 -87.333 321.5 -150s97.5 -147 97.5 -253c0 -132.667 -48.667 -238.167 -146 -316.5
s-228.333 -117.5 -393 -117.5c-152.667 0 -277.834 37.333 -375.501 112s-151.167 174.334 -160.5 299.001zM561 1575l310 298h226l-332 -298h-204z" />
    <glyph glyph-name="sacute" unicode="&#x15b;" horiz-adv-x="1072" 
d="M137 783c0 89.333 38.334 164.004 115.001 224.004s172.334 90 287.001 90c112.667 0 205.667 -26 279 -78s115.666 -122.333 126.999 -211h-170c-12 44 -38.5 78.833 -79.5 104.5s-93.5 38.5 -157.5 38.5c-64.667 0 -118.834 -15 -162.501 -45s-65.5 -68.667 -65.5 -116
c0 -36.667 15.167 -67.167 45.5 -91.5s77.5 -44.166 141.5 -59.499l166 -40c102.667 -24.667 178.5 -60.334 227.5 -107.001s73.5 -108.334 73.5 -185.001c0 -95.333 -41 -173.5 -123 -234.5s-185 -91.5 -309 -91.5c-120 0 -218.333 26.667 -295 80
s-119.667 124.666 -129 213.999h177c14.667 -46.667 43.667 -83.167 87 -109.5s98.666 -39.5 165.999 -39.5c72.667 0 132.334 15.667 179.001 47s70 71.666 70 120.999c0 73.333 -57 124 -171 152l-185 45c-102 24.667 -176.5 60.167 -223.5 106.5
s-70.5 108.166 -70.5 185.499zM425.001 1263l252 338h220l-278 -338h-194z" />
    <glyph glyph-name="Scircumflex" unicode="&#x15c;" horiz-adv-x="1305" 
d="M115 377h182c11.333 -75.333 50.333 -135.333 117 -180s151.334 -67 254.001 -67c97.333 0 177.833 23.5 241.5 70.5s95.5 106.167 95.5 177.5c0 61.333 -23.333 112.166 -70 152.499s-119.667 73.166 -219 98.499l-185 48c-130.667 32.667 -225.667 80 -285 142
s-89 144.333 -89 247c0 122.667 46.833 221.834 140.5 297.501s216.834 113.5 369.501 113.5c139.333 0 256 -37.333 350 -112s144.667 -170.334 152 -287.001h-181c-12.667 74 -47.834 131.833 -105.501 173.5s-131.5 62.5 -221.5 62.5
c-96 0 -173.167 -22.167 -231.5 -66.5s-87.5 -102.833 -87.5 -175.5c0 -56.667 21.5 -102.667 64.5 -138s114.167 -65.666 213.5 -90.999l151 -40c149.333 -37.333 256.5 -87.333 321.5 -150s97.5 -147 97.5 -253c0 -132.667 -48.667 -238.167 -146 -316.5
s-228.333 -117.5 -393 -117.5c-152.667 0 -277.834 37.333 -375.501 112s-151.167 174.334 -160.5 299.001zM749 1873l300 -298h-202l-172 177h-16l-172 -177h-202l300 298h164z" />
    <glyph glyph-name="scircumflex" unicode="&#x15d;" horiz-adv-x="1072" 
d="M137 783c0 89.333 38.334 164.004 115.001 224.004s172.334 90 287.001 90c112.667 0 205.667 -26 279 -78s115.666 -122.333 126.999 -211h-170c-12 44 -38.5 78.833 -79.5 104.5s-93.5 38.5 -157.5 38.5c-64.667 0 -118.834 -15 -162.501 -45s-65.5 -68.667 -65.5 -116
c0 -36.667 15.167 -67.167 45.5 -91.5s77.5 -44.166 141.5 -59.499l166 -40c102.667 -24.667 178.5 -60.334 227.5 -107.001s73.5 -108.334 73.5 -185.001c0 -95.333 -41 -173.5 -123 -234.5s-185 -91.5 -309 -91.5c-120 0 -218.333 26.667 -295 80
s-119.667 124.666 -129 213.999h177c14.667 -46.667 43.667 -83.167 87 -109.5s98.666 -39.5 165.999 -39.5c72.667 0 132.334 15.667 179.001 47s70 71.666 70 120.999c0 73.333 -57 124 -171 152l-185 45c-102 24.667 -176.5 60.167 -223.5 106.5
s-70.5 108.166 -70.5 185.499zM640.001 1568l282 -340h-198l-177 227h-16l-177 -227h-198l282 340h202z" />
    <glyph glyph-name="Scedilla" unicode="&#x15e;" horiz-adv-x="1305" 
d="M620 843l151 -39.9971c149.333 -37.333 256.5 -87.333 321.5 -150s97.5 -147 97.5 -253c0 -122 -41.833 -221.5 -125.5 -298.5s-197.5 -121.167 -341.5 -132.5l-43 -111c68 0 120.833 -14.333 158.5 -43s56.5 -68.667 56.5 -120
c0 -56.667 -21.833 -102.334 -65.5 -137.001s-103.167 -52 -178.5 -52c-56.667 0 -105.334 6 -146.001 18v108c32 -9.33301 72.667 -14 122 -14c79.333 0 119 24.333 119 73c0 23.333 -11.667 40 -35 50s-61.333 15 -114 15h-59v84l51 128
c-136.667 10.667 -247.667 52.667 -333 126s-132.333 167.666 -141 282.999h182c11.333 -75.333 50.333 -135.333 117 -180s151.334 -67 254.001 -67c97.333 0 177.833 23.5 241.5 70.5s95.5 106.167 95.5 177.5c0 61.333 -23.333 112.166 -70 152.499
s-119.667 73.166 -219 98.499l-185 48c-130.667 32.667 -225.667 80 -285 142s-89 144.333 -89 247c0 122.667 46.833 221.834 140.5 297.501s216.834 113.5 369.501 113.5c139.333 0 256 -37.333 350 -112s144.667 -170.334 152 -287.001h-181
c-12.667 74 -47.834 131.833 -105.501 173.5s-131.5 62.5 -221.5 62.5c-96 0 -173.167 -22.167 -231.5 -66.5s-87.5 -102.833 -87.5 -175.5c0 -56.667 21.5 -102.667 64.5 -138s114.167 -65.666 213.5 -90.999z" />
    <glyph glyph-name="scedilla" unicode="&#x15f;" horiz-adv-x="1072" 
d="M497 639l166.004 -39.9961c102.667 -24.667 178.5 -60.334 227.5 -107.001s73.5 -108.334 73.5 -185.001c0 -84.667 -32.833 -156.167 -98.5 -214.5s-150.834 -93.833 -255.501 -106.5l-49 -128c68 0 120.833 -14.333 158.5 -43s56.5 -68.667 56.5 -120
c0 -56.667 -21.833 -102.334 -65.5 -137.001s-103.167 -52 -178.5 -52c-56 0 -104.667 6 -146 18v108c32 -9.33301 72.667 -14 122 -14c79.333 0 119 24.333 119 73c0 23.333 -11.667 40 -35 50s-61.333 15 -114 15h-59v84l56 143c-104.667 8.66699 -189.834 39 -255.501 91
s-102.834 119 -111.501 201h177c14.667 -46.667 43.667 -83.167 87 -109.5s98.666 -39.5 165.999 -39.5c72.667 0 132.334 15.667 179.001 47s70 71.666 70 120.999c0 73.333 -57 124 -171 152l-185 45c-102 24.667 -176.5 60.167 -223.5 106.5s-70.5 108.166 -70.5 185.499
c0 89.333 38.333 164 115 224s172.334 90 287.001 90c112.667 0 205.667 -26 279 -78s115.666 -122.333 126.999 -211h-170c-12 44 -38.5 78.833 -79.5 104.5s-93.5 38.5 -157.5 38.5c-64.667 0 -118.834 -15 -162.501 -45s-65.5 -68.667 -65.5 -116
c0 -36.667 15.167 -67.167 45.5 -91.5s77.5 -44.166 141.5 -59.499z" />
    <glyph glyph-name="Scaron" unicode="&#x160;" horiz-adv-x="1305" 
d="M115 377h182c11.333 -75.333 50.333 -135.333 117 -180s151.334 -67 254.001 -67c97.333 0 177.833 23.5 241.5 70.5s95.5 106.167 95.5 177.5c0 61.333 -23.333 112.166 -70 152.499s-119.667 73.166 -219 98.499l-185 48c-130.667 32.667 -225.667 80 -285 142
s-89 144.333 -89 247c0 122.667 46.833 221.834 140.5 297.501s216.834 113.5 369.501 113.5c139.333 0 256 -37.333 350 -112s144.667 -170.334 152 -287.001h-181c-12.667 74 -47.834 131.833 -105.501 173.5s-131.5 62.5 -221.5 62.5
c-96 0 -173.167 -22.167 -231.5 -66.5s-87.5 -102.833 -87.5 -175.5c0 -56.667 21.5 -102.667 64.5 -138s114.167 -65.666 213.5 -90.999l151 -40c149.333 -37.333 256.5 -87.333 321.5 -150s97.5 -147 97.5 -253c0 -132.667 -48.667 -238.167 -146 -316.5
s-228.333 -117.5 -393 -117.5c-152.667 0 -277.834 37.333 -375.501 112s-151.167 174.334 -160.5 299.001zM749 1575h-164l-300 298h202l172 -177h16l172 177h202z" />
    <glyph glyph-name="scaron" unicode="&#x161;" horiz-adv-x="1072" 
d="M137 783c0 89.333 38.334 164.004 115.001 224.004s172.334 90 287.001 90c112.667 0 205.667 -26 279 -78s115.666 -122.333 126.999 -211h-170c-12 44 -38.5 78.833 -79.5 104.5s-93.5 38.5 -157.5 38.5c-64.667 0 -118.834 -15 -162.501 -45s-65.5 -68.667 -65.5 -116
c0 -36.667 15.167 -67.167 45.5 -91.5s77.5 -44.166 141.5 -59.499l166 -40c102.667 -24.667 178.5 -60.334 227.5 -107.001s73.5 -108.334 73.5 -185.001c0 -95.333 -41 -173.5 -123 -234.5s-185 -91.5 -309 -91.5c-120 0 -218.333 26.667 -295 80
s-119.667 124.666 -129 213.999h177c14.667 -46.667 43.667 -83.167 87 -109.5s98.666 -39.5 165.999 -39.5c72.667 0 132.334 15.667 179.001 47s70 71.666 70 120.999c0 73.333 -57 124 -171 152l-185 45c-102 24.667 -176.5 60.167 -223.5 106.5
s-70.5 108.166 -70.5 185.499zM640.001 1228h-202l-282 340h198l177 -227h16l177 227h198z" />
    <glyph glyph-name="Tcedilla" unicode="&#x162;" horiz-adv-x="1298" 
d="M739 1281l0.000976562 -1281l-55 -142c68 0 120.833 -14.333 158.5 -43s56.5 -68.667 56.5 -120c0 -56.667 -21.833 -102.334 -65.5 -137.001s-103.167 -52 -178.5 -52c-56.667 0 -105.334 6 -146.001 18v108c32 -9.33301 72.667 -14 122 -14c79.333 0 119 24.333 119 73
c0 23.333 -11.667 40 -35 50s-61.333 15 -114 15h-59v84l63 160h-46v1281h-465v162h1110v-162h-465z" />
    <glyph glyph-name="tcedilla" unicode="&#x163;" horiz-adv-x="744" 
d="M411 -494c-56.667 0 -105.332 6.00098 -145.999 18.001v108c32 -9.33301 72.667 -14 122 -14c79.333 0 119 24.333 119 73c0 23.333 -11.667 40 -35 50s-61.333 15 -114 15h-59v84l70 180c-46.667 19.333 -80.667 50 -102 92s-32 98 -32 168v654h-174v144h174v279h172
v-279h240v-144h-240v-610c0 -63.333 12.667 -109.333 38 -138s66 -43 122 -43c23.333 0 49.333 1.33301 78 4v-145c-38 -6.66699 -71 -10 -99 -10c-12.667 0 -30.334 0.666992 -53.001 2l-52 -136c68 0 120.833 -14.333 158.5 -43s56.5 -68.667 56.5 -120
c0 -56.667 -21.833 -102.334 -65.5 -137.001s-103.167 -52 -178.5 -52z" />
    <glyph glyph-name="Tcaron" unicode="&#x164;" horiz-adv-x="1298" 
d="M739 0h-180v1281h-465v162h1110v-162h-465v-1281zM731 1575h-164l-300 298h202l172 -177h16l172 177h202z" />
    <glyph glyph-name="tcaron" unicode="&#x165;" horiz-adv-x="744" 
d="M659 1232h-120v488h170zM234 1357l171.999 -0.000976562v-279h240v-144h-240v-610c0 -63.333 12.667 -109.333 38 -138s66 -43 122 -43c24.667 0 51.334 1.33301 80.001 4v-145c-38 -6.66699 -71.667 -10 -101 -10c-111.333 0 -191 22.333 -239 67
s-72 118.334 -72 221.001v654h-174v144h174v279z" />
    <glyph glyph-name="Tbar" unicode="&#x166;" horiz-adv-x="1298" 
d="M1204 1281h-465v-488h305v-143h-305v-650h-180v650h-305v143h305v488h-465v162h1110v-162z" />
    <glyph glyph-name="tbar" unicode="&#x167;" horiz-adv-x="739" 
d="M655 495l-249.001 -0.000976562v-171c0 -63.333 12.667 -109.333 38 -138s66 -43 122 -43c24.667 0 51.334 1.33301 80.001 4v-145c-38 -6.66699 -71.667 -10 -101 -10c-111.333 0 -191 22.333 -239 67s-72 118.334 -72 221.001v215h-178v144h178v295h-174v144h174v279
h172v-279h240v-144h-240v-295h249v-144z" />
    <glyph glyph-name="Utilde" unicode="&#x168;" horiz-adv-x="1524" 
d="M369 1443l-0.00195312 -935c0 -111.333 34.833 -201.833 104.5 -271.5s165.834 -104.5 288.501 -104.5s218.834 34.833 288.501 104.5s104.5 160.167 104.5 271.5v935h180v-947c0 -156.667 -51.5 -284.167 -154.5 -382.5s-242.5 -147.5 -418.5 -147.5
s-315.5 49.167 -418.5 147.5s-154.5 225.833 -154.5 382.5v947h180zM911.998 1575c-30 0 -57.498 5.83301 -82.498 17.5s-45.833 25.667 -62.5 42s-32.5 32.666 -47.5 48.999s-31.333 30.333 -49 42s-35.834 17.5 -54.501 17.5c-30 0 -52.667 -11.5 -68 -34.5
s-24 -61.833 -26 -116.5h-136c0 88.667 20.167 157.667 60.5 207s95.5 74 165.5 74c32 0 61.5 -5.83301 88.5 -17.5s49.333 -25.667 67 -42s34 -32.666 49 -48.999s30.167 -30.333 45.5 -42s30.666 -17.5 45.999 -17.5c58 0 89.667 50.333 95 151h135
c0 -85.333 -20.5 -153.5 -61.5 -204.5s-95.833 -76.5 -164.5 -76.5z" />
    <glyph glyph-name="utilde" unicode="&#x169;" horiz-adv-x="1196" 
d="M1034 1078v-1078h-164v169h-16c-27.333 -60.667 -69.333 -107.167 -126 -139.5s-126 -48.5 -208 -48.5c-120 0 -211.333 34.333 -274 103s-94 167.334 -94 296.001v698h172v-656c0 -98 19.333 -169.833 58 -215.5s100.667 -68.5 186 -68.5c94 0 166.5 26.5 217.5 79.5
s76.5 127.167 76.5 222.5v638h172zM455 1388c-35.333 0 -60.5 -12 -75.5 -36s-22.5 -64.333 -22.5 -121h-142c0 90.667 20.5 161.834 61.5 213.501s97.833 77.5 170.5 77.5c29.333 0 56.833 -5.33301 82.5 -16s47.167 -23.667 64.5 -39s33.333 -30.833 48 -46.5
s29.5 -28.834 44.5 -39.501s29.833 -16 44.5 -16c35.333 0 60.5 12 75.5 36s22.5 64.333 22.5 121h142c0 -90.667 -20.5 -161.834 -61.5 -213.501s-97.833 -77.5 -170.5 -77.5c-29.333 0 -56.833 5.33301 -82.5 16s-47.167 23.834 -64.5 39.501s-33.333 31.167 -48 46.5
s-29.5 28.333 -44.5 39s-29.833 16 -44.5 16z" />
    <glyph glyph-name="Umacron" unicode="&#x16a;" horiz-adv-x="1524" 
d="M369 1443l-0.00195312 -935c0 -111.333 34.833 -201.833 104.5 -271.5s165.834 -104.5 288.501 -104.5s218.834 34.833 288.501 104.5s104.5 160.167 104.5 271.5v935h180v-947c0 -156.667 -51.5 -284.167 -154.5 -382.5s-242.5 -147.5 -418.5 -147.5
s-315.5 49.167 -418.5 147.5s-154.5 225.833 -154.5 382.5v947h180zM1099 1620h-674v136h674v-136z" />
    <glyph glyph-name="umacron" unicode="&#x16b;" horiz-adv-x="1196" 
d="M1034 1078v-1078h-164v169h-16c-27.333 -60.667 -69.333 -107.167 -126 -139.5s-126 -48.5 -208 -48.5c-120 0 -211.333 34.333 -274 103s-94 167.334 -94 296.001v698h172v-656c0 -98 19.333 -169.833 58 -215.5s100.667 -68.5 186 -68.5c94 0 166.5 26.5 217.5 79.5
s76.5 127.167 76.5 222.5v638h172zM930 1286h-674v136h674v-136z" />
    <glyph glyph-name="Ubreve" unicode="&#x16c;" horiz-adv-x="1524" 
d="M369 1443l-0.00195312 -935c0 -111.333 34.833 -201.833 104.5 -271.5s165.834 -104.5 288.501 -104.5s218.834 34.833 288.501 104.5s104.5 160.167 104.5 271.5v935h180v-947c0 -156.667 -51.5 -284.167 -154.5 -382.5s-242.5 -147.5 -418.5 -147.5
s-315.5 49.167 -418.5 147.5s-154.5 225.833 -154.5 382.5v947h180zM397.998 1873h153.998c0 -52.667 18.833 -94.667 56.5 -126s88.834 -47 153.501 -47s115.834 15.667 153.501 47s56.5 73.333 56.5 126h154c0 -90 -32.667 -162.167 -98 -216.5s-154 -81.5 -266 -81.5
s-200.667 27.167 -266 81.5s-98 126.5 -98 216.5z" />
    <glyph glyph-name="ubreve" unicode="&#x16d;" horiz-adv-x="1196" 
d="M1034 1078v-1078h-164v169h-16c-27.333 -60.667 -69.333 -107.167 -126 -139.5s-126 -48.5 -208 -48.5c-120 0 -211.333 34.333 -274 103s-94 167.334 -94 296.001v698h172v-656c0 -98 19.333 -169.833 58 -215.5s100.667 -68.5 186 -68.5c94 0 166.5 26.5 217.5 79.5
s76.5 127.167 76.5 222.5v638h172zM227 1556h154c0 -59.333 18.5 -107.5 55.5 -144.5s88.5 -55.5 154.5 -55.5s117.5 18.5 154.5 55.5s55.5 85.167 55.5 144.5h154c0 -96.667 -32.667 -175.5 -98 -236.5s-154 -91.5 -266 -91.5s-200.667 30.5 -266 91.5
s-98 139.833 -98 236.5z" />
    <glyph glyph-name="Uring" unicode="&#x16e;" horiz-adv-x="1524" 
d="M369 1443l-0.00195312 -935c0 -111.333 34.833 -201.833 104.5 -271.5s165.834 -104.5 288.501 -104.5s218.834 34.833 288.501 104.5s104.5 160.167 104.5 271.5v935h180v-947c0 -156.667 -51.5 -284.167 -154.5 -382.5s-242.5 -147.5 -418.5 -147.5
s-315.5 49.167 -418.5 147.5s-154.5 225.833 -154.5 382.5v947h180zM761.998 1551c-55.333 0 -102.333 19 -141 57s-58 84.667 -58 140s19.333 102 58 140s85.667 57 141 57s102.333 -19 141 -57s58 -84.667 58 -140s-19.333 -102 -58 -140s-85.667 -57 -141 -57z
M761.998 1643c30.667 0 55.834 10 75.501 30s29.5 45 29.5 75c0 30.667 -9.83301 55.834 -29.5 75.501s-44.834 29.5 -75.501 29.5s-55.834 -9.83301 -75.501 -29.5s-29.5 -44.834 -29.5 -75.501c0 -30 9.83301 -55 29.5 -75s44.834 -30 75.501 -30z" />
    <glyph glyph-name="uring" unicode="&#x16f;" horiz-adv-x="1196" 
d="M1034 1078v-1078h-164v169h-16c-27.333 -60.667 -69.333 -107.167 -126 -139.5s-126 -48.5 -208 -48.5c-120 0 -211.333 34.333 -274 103s-94 167.334 -94 296.001v698h172v-656c0 -98 19.333 -169.833 58 -215.5s100.667 -68.5 186 -68.5c94 0 166.5 26.5 217.5 79.5
s76.5 127.167 76.5 222.5v638h172zM593 1228c-64 0 -118.667 22.167 -164 66.5s-68 98.5 -68 162.5s22.667 118.167 68 162.5s100 66.5 164 66.5s118.667 -22.167 164 -66.5s68 -98.5 68 -162.5s-22.667 -118.167 -68 -162.5s-100 -66.5 -164 -66.5zM593 1334
c34.667 0 63.667 11.667 87 35s35 52.666 35 87.999s-11.667 64.666 -35 87.999s-52.333 35 -87 35s-63.667 -11.667 -87 -35s-35 -52.666 -35 -87.999s11.667 -64.666 35 -87.999s52.333 -35 87 -35z" />
    <glyph glyph-name="Uhungarumlaut" unicode="&#x170;" horiz-adv-x="1524" 
d="M369 1443l-0.00195312 -935c0 -111.333 34.833 -201.833 104.5 -271.5s165.834 -104.5 288.501 -104.5s218.834 34.833 288.501 104.5s104.5 160.167 104.5 271.5v935h180v-947c0 -156.667 -51.5 -284.167 -154.5 -382.5s-242.5 -147.5 -418.5 -147.5
s-315.5 49.167 -418.5 147.5s-154.5 225.833 -154.5 382.5v947h180zM811.998 1575l310 298h226l-332 -298h-204zM397.998 1575l310 298h226l-332 -298h-204z" />
    <glyph glyph-name="uhungarumlaut" unicode="&#x171;" horiz-adv-x="1196" 
d="M1034 1078v-1078h-164v169h-16c-27.333 -60.667 -69.333 -107.167 -126 -139.5s-126 -48.5 -208 -48.5c-120 0 -211.333 34.333 -274 103s-94 167.334 -94 296.001v698h172v-656c0 -98 19.333 -169.833 58 -215.5s100.667 -68.5 186 -68.5c94 0 166.5 26.5 217.5 79.5
s76.5 127.167 76.5 222.5v638h172zM658 1263l252 338h210l-280 -338h-182zM258 1263l252 338h210l-280 -338h-182z" />
    <glyph glyph-name="Uogonek" unicode="&#x172;" horiz-adv-x="1524" 
d="M1023 -432c-72.667 0 -131.329 19.501 -175.996 58.501s-67 87.5 -67 145.5c0 82 43.667 151.333 131 208v16c-14 -8.66699 -35.667 -15.834 -65 -21.501s-57.333 -8.5 -84 -8.5c-172.667 0 -311.334 48.333 -416.001 145s-157 225 -157 385v947h180v-935
c0 -114.667 35.667 -206 107 -274s166.666 -102 285.999 -102s214.666 34 285.999 102s107 159.333 107 274v935h180v-947c0 -90.667 -19.5 -173.167 -58.5 -247.5s-103.833 -152.5 -194.5 -234.5c-88.667 -78.667 -133 -146.667 -133 -204c0 -30.667 11 -54.667 33 -72
s48.333 -26 79 -26c28 0 50 2 66 6v-134c-30.667 -10.667 -65.334 -16 -104.001 -16z" />
    <glyph glyph-name="uogonek" unicode="&#x173;" horiz-adv-x="1196" 
d="M679 -228c0 54 18.001 102.5 54.001 145.5s81.667 74.5 137 94.5v157h-16c-27.333 -60.667 -69.333 -107.167 -126 -139.5s-126 -48.5 -208 -48.5c-120 0 -211.333 34.333 -274 103s-94 167.334 -94 296.001v698h172v-656c0 -98 19.333 -169.833 58 -215.5
s100.667 -68.5 186 -68.5c94 0 166.5 26.5 217.5 79.5s76.5 127.167 76.5 222.5v638h172v-1078l-12 -5c-54 -22 -96.5 -49.333 -127.5 -82s-46.5 -67 -46.5 -103c0 -28.667 10.5 -52.167 31.5 -70.5s47.833 -27.5 80.5 -27.5c29.333 0 51.333 2 66 6v-134
c-30 -10.667 -64.667 -16 -104 -16c-70.667 0 -128.834 19.167 -174.501 57.5s-68.5 87.166 -68.5 146.499z" />
    <glyph glyph-name="Wcircumflex" unicode="&#x174;" horiz-adv-x="1982" 
d="M985 1139l-332 -1139h-170l-393 1443h188l287 -1173h12l323 1173h182l323 -1173h12l287 1173h188l-393 -1443h-170l-332 1139h-12zM1073 1873l300 -298h-202l-172 177h-16l-172 -177h-202l300 298h164z" />
    <glyph glyph-name="wcircumflex" unicode="&#x175;" horiz-adv-x="1586" 
d="M1518 1078l-302 -1078h-175l-241 834h-16l-240 -834h-174l-302 1078h174l212 -862h16l241 862h165l241 -862h16l212 862h173zM894 1568l282 -340h-198l-177 227h-16l-177 -227h-198l282 340h202z" />
    <glyph glyph-name="Ycircumflex" unicode="&#x176;" horiz-adv-x="1344" 
d="M762 0h-180v621l-512 822h205l389 -641h16l389 641h205l-512 -822v-621zM754 1873l300 -298h-202l-172 177h-16l-172 -177h-202l300 298h164z" />
    <glyph glyph-name="ycircumflex" unicode="&#x177;" horiz-adv-x="1112" 
d="M254 -390c-27.333 0 -53.001 2 -77.001 6v147c17.333 -3.33301 41.333 -5 72 -5c50 0 89.833 13.333 119.5 40s55.834 72.334 78.501 137.001l20 64l-399 1079h186l296 -887h16l295 887h183l-421 -1144c-46 -124.667 -95 -209.834 -147 -255.501s-126 -68.5 -222 -68.5z
M651.999 1568l282 -340h-198l-177 227h-16l-177 -227h-198l282 340h202z" />
    <glyph glyph-name="Ydieresis" unicode="&#x178;" horiz-adv-x="1344" 
d="M762 0h-180v621l-512 822h205l389 -641h16l389 641h205l-512 -822v-621zM470 1575c-33.333 0 -61.833 11.833 -85.5 35.5s-35.5 52.167 -35.5 85.5s11.833 61.833 35.5 85.5s52.167 35.5 85.5 35.5s61.833 -11.833 85.5 -35.5s35.5 -52.167 35.5 -85.5
s-11.833 -61.833 -35.5 -85.5s-52.167 -35.5 -85.5 -35.5zM874 1575c-33.333 0 -61.833 11.833 -85.5 35.5s-35.5 52.167 -35.5 85.5s11.833 61.833 35.5 85.5s52.167 35.5 85.5 35.5s61.833 -11.833 85.5 -35.5s35.5 -52.167 35.5 -85.5s-11.833 -61.833 -35.5 -85.5
s-52.167 -35.5 -85.5 -35.5z" />
    <glyph glyph-name="Zacute" unicode="&#x179;" horiz-adv-x="1355" 
d="M144 0v128l817 1137v16h-789v162h1022v-128l-813 -1137v-16h830v-162h-1067zM572 1575l310 298h226l-332 -298h-204z" />
    <glyph glyph-name="zacute" unicode="&#x17a;" horiz-adv-x="1104" 
d="M137 0v126l622 792v16h-621v144h826v-129l-619 -789v-16h622v-144h-830zM431 1263l252 338h220l-278 -338h-194z" />
    <glyph glyph-name="Zdotaccent" unicode="&#x17b;" horiz-adv-x="1355" 
d="M144 0v128l817 1137v16h-789v162h1022v-128l-813 -1137v-16h830v-162h-1067zM678 1575c-33.333 0 -61.833 11.833 -85.5 35.5s-35.5 52.167 -35.5 85.5s11.833 61.833 35.5 85.5s52.167 35.5 85.5 35.5s61.833 -11.833 85.5 -35.5s35.5 -52.167 35.5 -85.5
s-11.833 -61.833 -35.5 -85.5s-52.167 -35.5 -85.5 -35.5z" />
    <glyph glyph-name="zdotaccent" unicode="&#x17c;" horiz-adv-x="1104" 
d="M137 0v126l622 792v16h-621v144h826v-129l-619 -789v-16h622v-144h-830zM545 1287c-35.333 0 -65.5 12.5 -90.5 37.5s-37.5 55.167 -37.5 90.5c0 34.667 12.5 64.5 37.5 89.5s55.167 37.5 90.5 37.5s65.5 -12.5 90.5 -37.5s37.5 -54.833 37.5 -89.5
c0 -35.333 -12.5 -65.5 -37.5 -90.5s-55.167 -37.5 -90.5 -37.5z" />
    <glyph glyph-name="Zcaron" unicode="&#x17d;" horiz-adv-x="1355" 
d="M144 0v128l817 1137v16h-789v162h1022v-128l-813 -1137v-16h830v-162h-1067zM760 1575h-164l-300 298h202l172 -177h16l172 177h202z" />
    <glyph glyph-name="zcaron" unicode="&#x17e;" horiz-adv-x="1104" 
d="M137 0v126l622 792v16h-621v144h826v-129l-619 -789v-16h622v-144h-830zM646 1228h-202l-282 340h198l177 -227h16l177 227h198z" />
    <glyph glyph-name="florin" unicode="&#x192;" horiz-adv-x="1328" 
d="M295 -24c-73.333 0 -146 9 -218 27v167c66 -23.333 133.333 -35 202 -35c68 0 121.833 15.667 161.5 47s64.5 82.333 74.5 153l57 395h-336v144h356l33 227c17.333 118 60.833 208.5 130.5 271.5s161.5 94.5 275.5 94.5c87.333 0 158 -7 212 -21v-157
c-48 14.667 -111.333 22 -190 22c-149.333 0 -234.666 -73.667 -255.999 -221l-31 -216h369v-144h-390l-58 -408c-17.333 -120 -58.333 -207.667 -123 -263s-154.334 -83 -269.001 -83z" />
    <glyph glyph-name="Ohorn" unicode="&#x1a0;" horiz-adv-x="1603" 
d="M1451 722c0 -232 -58.832 -415.999 -176.499 -551.999s-278.834 -204 -483.501 -204c-206 0 -368 68 -486 204s-177 320 -177 552s59.5 415.833 178.5 551.5s280.5 203.5 484.5 203.5c49.333 0 118.5 -6.66699 207.5 -20s158.5 -20 208.5 -20c41.333 0 69.833 7 85.5 21
s23.5 38 23.5 72v140h159v-192c0 -52.667 -17.5 -94.334 -52.5 -125.001s-78.167 -46 -129.5 -46h-59v-12c64.667 -44.667 117 -120.167 157 -226.5s60 -221.833 60 -346.5zM791.001 1311c-146.667 0 -263 -53 -349 -159s-129 -249.333 -129 -430
s42.5 -324.167 127.5 -430.5s201.833 -159.5 350.5 -159.5c147.333 0 263.333 53.333 348 160s127 250 127 430c0 181.333 -42.333 324.833 -127 430.5s-200.667 158.5 -348 158.5z" />
    <glyph glyph-name="ohorn" unicode="&#x1a1;" horiz-adv-x="1254" 
d="M1102 539c0 -172.667 -44.333 -308.838 -133 -408.505s-210 -149.5 -364 -149.5s-275.333 49.833 -364 149.5s-133 235.834 -133 408.501s44.333 308.834 133 408.501s210 149.5 364 149.5c44 0 91.833 -4.16699 143.5 -12.5s94.834 -12.5 129.501 -12.5
c42 0 70.667 6.83301 86 20.5s23 37.834 23 72.501v137h159v-189c0 -50 -14.5 -89.167 -43.5 -117.5s-62.5 -42.5 -100.5 -42.5h-56v-7c47.333 -33.333 85.166 -85.666 113.499 -156.999s42.5 -154.666 42.5 -249.999zM605 135.996c101.333 0 179.833 35.167 235.5 105.5
s83.5 169.5 83.5 297.5c0 128.667 -27.833 228 -83.5 298s-134.167 105 -235.5 105s-179.833 -35 -235.5 -105s-83.5 -169.333 -83.5 -298c0 -128 27.833 -227.167 83.5 -297.5s134.167 -105.5 235.5 -105.5z" />
    <glyph glyph-name="Uhorn" unicode="&#x1af;" horiz-adv-x="1659" 
d="M762 -34c-172.667 0 -311.33 48.333 -415.997 145s-157 225 -157 385v947h180v-935c0 -114.667 35.667 -206 107 -274s166.666 -102 285.999 -102s214.666 34 285.999 102s107 159.333 107 274v935h182c31.333 0 54.333 7.16699 69 21.5s22 36.5 22 66.5v159h159v-189
c0 -60 -18.333 -106 -55 -138s-85.667 -48 -147 -48h-50v-819c0 -160 -52.333 -288.333 -157 -385s-243.334 -145 -416.001 -145z" />
    <glyph glyph-name="uhorn" unicode="&#x1b0;" horiz-adv-x="1316" 
d="M520 -19c-120 0 -211.333 34.332 -274 102.999s-94 167.334 -94 296.001v698h172v-656c0 -98 19.333 -169.833 58 -215.5s100.667 -68.5 186 -68.5c94 0 166.5 26.5 217.5 79.5s76.5 127.167 76.5 222.5v638h144c31.333 0 54.333 7.16699 69 21.5s22 36.5 22 66.5v152
h159v-182c0 -60 -18.333 -106 -55 -138s-85.667 -48 -147 -48h-20v-950h-164v169h-16c-27.333 -60.667 -69.333 -107.167 -126 -139.5s-126 -48.5 -208 -48.5z" />
    <glyph glyph-name="u01C4" unicode="&#x1c4;" horiz-adv-x="2842" 
d="M184 1443h495.001c214 0 381 -63.5 501 -190.5s180 -303.833 180 -530.5c0 -227.333 -59.833 -404.5 -179.5 -531.5s-286.834 -190.5 -501.501 -190.5h-495v1443zM364.001 1281v-1119h303c160.667 0 285.667 49 375 147s134 235 134 411
c0 176.667 -44.833 314.334 -134.5 413.001s-214.5 148 -374.5 148h-303zM1631 -0.000976562v128l817 1137v16h-789v162h1022v-128l-813 -1137v-16h830v-162h-1067zM2247 1575h-164l-300 298h202l172 -177h16l172 177h202z" />
    <glyph glyph-name="u01C5" unicode="&#x1c5;" horiz-adv-x="2591" 
d="M184 1443h495.001c214 0 381 -63.5 501 -190.5s180 -303.833 180 -530.5c0 -227.333 -59.833 -404.5 -179.5 -531.5s-286.834 -190.5 -501.501 -190.5h-495v1443zM364.001 1281v-1119h303c160.667 0 285.667 49 375 147s134 235 134 411
c0 176.667 -44.833 314.334 -134.5 413.001s-214.5 148 -374.5 148h-303zM1624 -0.000976562v126l622 792v16h-621v144h826v-129l-619 -789v-16h622v-144h-830zM2133 1228h-202l-282 340h198l177 -227h16l177 227h198z" />
    <glyph glyph-name="u01C6" unicode="&#x1c6;" horiz-adv-x="2362" 
d="M561 -19c-138 0 -247.999 50.668 -329.999 152.001s-123 236.666 -123 405.999c0 168.667 41.167 303.834 123.5 405.501s192.166 152.5 329.499 152.5c75.333 0 142.833 -16.833 202.5 -50.5s104.834 -79.834 135.501 -138.501h15v598h172v-1506h-164v172h-16
c-34 -60 -81.333 -106.833 -142 -140.5s-128.334 -50.5 -203.001 -50.5zM601.001 942.001c-98 0 -175.001 -35.833 -231.001 -107.5s-84 -170.167 -84 -295.5c0 -126 27.833 -224.667 83.5 -296s132.834 -107 231.501 -107c98 0 175.333 36 232 108s85 170.333 85 295
c0 123.333 -28.5 221.333 -85.5 294s-134.167 109 -231.5 109zM1395 0.000976562v126l622 792v16h-621v144h826v-129l-619 -789v-16h622v-144h-830zM1904 1228h-202l-282 340h198l177 -227h16l177 227h198z" />
    <glyph glyph-name="u01C7" unicode="&#x1c7;" horiz-adv-x="2265" 
d="M1060 162v-162h-876v1443h180v-1281h696zM1249 337h179.001c2 -60.667 24.333 -110 67 -148s97.667 -57 165 -57c77.333 0 136.833 23.167 178.5 69.5s62.5 113.5 62.5 201.5v1040h180v-1041c0 -137.333 -37.333 -244.333 -112 -321s-177.334 -115 -308.001 -115
c-121.333 0 -220.333 34.333 -297 103s-115 158 -115 268z" />
    <glyph glyph-name="u01C8" unicode="&#x1c8;" horiz-adv-x="1679" 
d="M1060 162v-162h-876v1443h180v-1281h696zM1501 1078l-0.000976562 -1131c0 -110.667 -26.667 -191.167 -80 -241.5s-136.666 -75.5 -249.999 -75.5h-30v147h26c60 0 102 12.667 126 38s36 68.333 36 129v1134h172zM1415 1297c-32.667 0 -60.834 11.833 -84.501 35.5
s-35.5 51.834 -35.5 84.501s11.833 60.834 35.5 84.501s51.834 35.5 84.501 35.5s60.834 -11.833 84.501 -35.5s35.5 -51.834 35.5 -84.501s-11.833 -60.834 -35.5 -84.501s-51.834 -35.5 -84.501 -35.5z" />
    <glyph glyph-name="u01C9" unicode="&#x1c9;" horiz-adv-x="1032" 
d="M172 0v1506h172v-1506h-172zM854 1078l-0.000976562 -1131c0 -110.667 -26.667 -191.167 -80 -241.5s-136.666 -75.5 -249.999 -75.5h-30v147h26c60 0 102 12.667 126 38s36 68.333 36 129v1134h172zM767.999 1297c-33.333 0 -61.666 11.833 -84.999 35.5
s-35 51.834 -35 84.501s11.667 60.834 35 84.501s51.666 35.5 84.999 35.5s61.666 -11.833 84.999 -35.5s35 -51.834 35 -84.501s-11.667 -60.834 -35 -84.501s-51.666 -35.5 -84.999 -35.5z" />
    <glyph glyph-name="u01CA" unicode="&#x1ca;" horiz-adv-x="2622" 
d="M362 0h-178v1443h175l783 -1123h16v1123h178v-1443h-175l-783 1119h-16v-1119zM1606 337h179c2 -60.667 24.333 -110 67 -148s97.667 -57 165 -57c77.333 0 136.833 23.167 178.5 69.5s62.5 113.5 62.5 201.5v1040h180v-1041c0 -137.333 -37.333 -244.333 -112 -321
s-177.334 -115 -308 -115c-121.333 0 -220.333 34.333 -297 103s-115 158 -115 268z" />
    <glyph glyph-name="u01CB" unicode="&#x1cb;" horiz-adv-x="2036" 
d="M362 0h-178v1443h175l783 -1123h16v1123h178v-1443h-175l-783 1119h-16v-1119zM1858 1078l-0.000976562 -1131c0 -110.667 -26.667 -191.167 -80 -241.5s-136.666 -75.5 -249.999 -75.5h-30v147h26c60 0 102 12.667 126 38s36 68.333 36 129v1134h172zM1772 1297
c-33.333 0 -61.666 11.833 -84.999 35.5s-35 51.834 -35 84.501s11.667 60.834 35 84.501s51.666 35.5 84.999 35.5s61.666 -11.833 84.999 -35.5s35 -51.834 35 -84.501s-11.667 -60.834 -35 -84.501s-51.666 -35.5 -84.999 -35.5z" />
    <glyph glyph-name="u01CC" unicode="&#x1cc;" horiz-adv-x="1699" 
d="M162 0v1078h164v-170h16c57.333 126 165.333 189 324 189c120.667 0 213.667 -34.5 279 -103.5s98 -167.5 98 -295.5v-698h-172v656c0 96.667 -20.833 168.5 -62.5 215.5s-105.5 70.5 -191.5 70.5c-86.667 0 -155.5 -27.167 -206.5 -81.5s-76.5 -128.5 -76.5 -222.5v-638
h-172zM1533 1078l-0.000976562 -1131c0 -110.667 -26.667 -191.167 -80 -241.5s-136.666 -75.5 -249.999 -75.5h-30v147h26c60 0 102 12.667 126 38s36 68.333 36 129v1134h172zM1447 1297c-32.667 0 -60.834 11.833 -84.501 35.5s-35.5 51.834 -35.5 84.501
s11.833 60.834 35.5 84.501s51.834 35.5 84.501 35.5s60.834 -11.833 84.501 -35.5s35.5 -51.834 35.5 -84.501s-11.833 -60.834 -35.5 -84.501s-51.834 -35.5 -84.501 -35.5z" />
    <glyph glyph-name="Acaron" unicode="&#x1cd;" horiz-adv-x="1380" 
d="M1122 0l-145 413h-574l-145 -413h-189l532 1443h178l532 -1443h-189zM682 1210l-226 -644h468l-226 644h-16zM772 1575h-164l-300 298h202l172 -177h16l172 177h202z" />
    <glyph glyph-name="acaron" unicode="&#x1ce;" horiz-adv-x="1130" 
d="M494 132c88.667 0 162.167 25.6689 220.5 77.002s87.5 115.666 87.5 192.999v99l-290 -19c-81.333 -5.33301 -141 -22.333 -179 -51s-57 -70.334 -57 -125.001c0 -54 20.333 -96.5 61 -127.5s93 -46.5 157 -46.5zM462 -18.998c-106 0 -193.166 29.168 -261.499 87.501
s-102.5 136.166 -102.5 233.499c0 96 34 171.333 102 226s165 85.667 291 93l311 19v98c0 66.667 -20.667 117.667 -62 153s-102 53 -182 53c-64.667 0 -118.334 -11.667 -161.001 -35s-70 -56.333 -82 -99h-174c11.333 86 55.833 155.333 133.5 208s174.167 79 289.5 79
c130.667 0 231.667 -31.667 303 -95s107 -151.333 107 -264v-738h-164v159h-16c-34.667 -57.333 -80.667 -101.333 -138 -132s-122 -46 -194 -46zM665.001 1228h-202l-282 340h198l177 -227h16l177 227h198z" />
    <glyph glyph-name="Icaron" unicode="&#x1cf;" horiz-adv-x="548" 
d="M364 0h-180v1443h180v-1443zM356 1575h-164l-300 298h202l172 -177h16l172 177h202z" />
    <glyph glyph-name="icaron" unicode="&#x1d0;" horiz-adv-x="504" 
d="M166 0v1078h172v-1078h-172zM353 1228h-202l-282 340h198l177 -227h16l177 227h198z" />
    <glyph glyph-name="Ocaron" unicode="&#x1d1;" horiz-adv-x="1579" 
d="M791 1477c204.667 0 365.834 -67.833 483.501 -203.5s176.5 -319.5 176.5 -551.5s-58.833 -416 -176.5 -552s-278.834 -204 -483.501 -204c-206 0 -368 68 -486 204s-177 320 -177 552s59.5 415.833 178.5 551.5s280.5 203.5 484.5 203.5zM791 1311
c-146.667 0 -263 -53 -349 -159s-129 -249.333 -129 -430s42.5 -324.167 127.5 -430.5s201.833 -159.5 350.5 -159.5c147.333 0 263.333 53.333 348 160s127 250 127 430c0 181.333 -42.333 324.833 -127 430.5s-200.667 158.5 -348 158.5zM873 1575h-164l-300 298h202
l172 -177h16l172 177h202z" />
    <glyph glyph-name="ocaron" unicode="&#x1d2;" horiz-adv-x="1210" 
d="M605 136c102 0 180.667 35.167 236 105.5s83 169.5 83 297.5s-27.667 227.167 -83 297.5s-134 105.5 -236 105.5s-180.667 -35.167 -236 -105.5s-83 -169.5 -83 -297.5s27.667 -227.167 83 -297.5s134 -105.5 236 -105.5zM605 -19c-153.333 0 -274.5 49.833 -363.5 149.5
s-133.5 235.834 -133.5 408.501c0 173.333 44.333 309.666 133 408.999s210 149 364 149s275.333 -49.667 364 -149s133 -235.666 133 -408.999c0 -172.667 -44.5 -308.834 -133.5 -408.501s-210.167 -149.5 -363.5 -149.5zM706 1228h-202l-282 340h198l177 -227h16l177 227
h198z" />
    <glyph glyph-name="Ucaron" unicode="&#x1d3;" horiz-adv-x="1524" 
d="M369 1443l-0.00195312 -935c0 -111.333 34.833 -201.833 104.5 -271.5s165.834 -104.5 288.501 -104.5s218.834 34.833 288.501 104.5s104.5 160.167 104.5 271.5v935h180v-947c0 -156.667 -51.5 -284.167 -154.5 -382.5s-242.5 -147.5 -418.5 -147.5
s-315.5 49.167 -418.5 147.5s-154.5 225.833 -154.5 382.5v947h180zM843.998 1575h-164l-300 298h202l172 -177h16l172 177h202z" />
    <glyph glyph-name="ucaron" unicode="&#x1d4;" horiz-adv-x="1196" 
d="M1034 1078v-1078h-164v169h-16c-27.333 -60.667 -69.333 -107.167 -126 -139.5s-126 -48.5 -208 -48.5c-120 0 -211.333 34.333 -274 103s-94 167.334 -94 296.001v698h172v-656c0 -98 19.333 -169.833 58 -215.5s100.667 -68.5 186 -68.5c94 0 166.5 26.5 217.5 79.5
s76.5 127.167 76.5 222.5v638h172zM694 1228h-202l-282 340h198l177 -227h16l177 227h198z" />
    <glyph glyph-name="Udieresismacron" unicode="&#x1d5;" horiz-adv-x="1524" 
d="M369 1443l-0.00195312 -935c0 -111.333 34.833 -201.833 104.5 -271.5s165.834 -104.5 288.501 -104.5s218.834 34.833 288.501 104.5s104.5 160.167 104.5 271.5v935h180v-947c0 -156.667 -51.5 -284.167 -154.5 -382.5s-242.5 -147.5 -418.5 -147.5
s-315.5 49.167 -418.5 147.5s-154.5 225.833 -154.5 382.5v947h180zM424.998 1932v130h674v-130h-674zM559.998 1575c-32.667 0 -60.334 11.333 -83.001 34s-34 50.334 -34 83.001s11.333 60.334 34 83.001s50.334 34 83.001 34s60.334 -11.333 83.001 -34
s34 -50.334 34 -83.001s-11.333 -60.334 -34 -83.001s-50.334 -34 -83.001 -34zM963.998 1575c-32.667 0 -60.334 11.333 -83.001 34s-34 50.334 -34 83.001s11.333 60.334 34 83.001s50.334 34 83.001 34s60.334 -11.333 83.001 -34s34 -50.334 34 -83.001
s-11.333 -60.334 -34 -83.001s-50.334 -34 -83.001 -34z" />
    <glyph glyph-name="udieresismacron" unicode="&#x1d6;" horiz-adv-x="1196" 
d="M1034 1078v-1078h-164v169h-16c-27.333 -60.667 -69.333 -107.167 -126 -139.5s-126 -48.5 -208 -48.5c-120 0 -211.333 34.333 -274 103s-94 167.334 -94 296.001v698h172v-656c0 -98 19.333 -169.833 58 -215.5s100.667 -68.5 186 -68.5c94 0 166.5 26.5 217.5 79.5
s76.5 127.167 76.5 222.5v638h172zM391 1228c-32.667 0 -60.334 11.333 -83.001 34s-34 50.334 -34 83.001s11.333 60.334 34 83.001s50.334 34 83.001 34s60.334 -11.333 83.001 -34s34 -50.334 34 -83.001s-11.333 -60.334 -34 -83.001s-50.334 -34 -83.001 -34zM795 1228
c-32.667 0 -60.334 11.333 -83.001 34s-34 50.334 -34 83.001s11.333 60.334 34 83.001s50.334 34 83.001 34s60.334 -11.333 83.001 -34s34 -50.334 34 -83.001s-11.333 -60.334 -34 -83.001s-50.334 -34 -83.001 -34zM930 1620h-674v136h674v-136z" />
    <glyph glyph-name="Udieresisacute" unicode="&#x1d7;" horiz-adv-x="1524" 
d="M369 1443l-0.00195312 -935c0 -111.333 34.833 -201.833 104.5 -271.5s165.834 -104.5 288.501 -104.5s218.834 34.833 288.501 104.5s104.5 160.167 104.5 271.5v935h180v-947c0 -156.667 -51.5 -284.167 -154.5 -382.5s-242.5 -147.5 -418.5 -147.5
s-315.5 49.167 -418.5 147.5s-154.5 225.833 -154.5 382.5v947h180zM673.998 1873l230 222h227l-281 -222h-176zM559.998 1575c-33.333 0 -61.833 11.833 -85.5 35.5s-35.5 52.167 -35.5 85.5s11.833 61.833 35.5 85.5s52.167 35.5 85.5 35.5s61.833 -11.833 85.5 -35.5
s35.5 -52.167 35.5 -85.5s-11.833 -61.833 -35.5 -85.5s-52.167 -35.5 -85.5 -35.5zM963.998 1575c-33.333 0 -61.833 11.833 -85.5 35.5s-35.5 52.167 -35.5 85.5s11.833 61.833 35.5 85.5s52.167 35.5 85.5 35.5s61.833 -11.833 85.5 -35.5s35.5 -52.167 35.5 -85.5
s-11.833 -61.833 -35.5 -85.5s-52.167 -35.5 -85.5 -35.5z" />
    <glyph glyph-name="udieresisacute" unicode="&#x1d8;" horiz-adv-x="1196" 
d="M1034 1078v-1078h-164v169h-16c-27.333 -60.667 -69.333 -107.167 -126 -139.5s-126 -48.5 -208 -48.5c-120 0 -211.333 34.333 -274 103s-94 167.334 -94 296.001v698h172v-656c0 -98 19.333 -169.833 58 -215.5s100.667 -68.5 186 -68.5c94 0 166.5 26.5 217.5 79.5
s76.5 127.167 76.5 222.5v638h172zM493 1575l190 298h198l-218 -298h-170zM391 1228c-33.333 0 -61.833 11.833 -85.5 35.5s-35.5 52.167 -35.5 85.5s11.833 61.833 35.5 85.5s52.167 35.5 85.5 35.5s61.833 -11.833 85.5 -35.5s35.5 -52.167 35.5 -85.5
s-11.833 -61.833 -35.5 -85.5s-52.167 -35.5 -85.5 -35.5zM795 1228c-33.333 0 -61.833 11.833 -85.5 35.5s-35.5 52.167 -35.5 85.5s11.833 61.833 35.5 85.5s52.167 35.5 85.5 35.5s61.833 -11.833 85.5 -35.5s35.5 -52.167 35.5 -85.5s-11.833 -61.833 -35.5 -85.5
s-52.167 -35.5 -85.5 -35.5z" />
    <glyph glyph-name="Udieresiscaron" unicode="&#x1d9;" horiz-adv-x="1524" 
d="M369 1443l-0.00195312 -935c0 -111.333 34.833 -201.833 104.5 -271.5s165.834 -104.5 288.501 -104.5s218.834 34.833 288.501 104.5s104.5 160.167 104.5 271.5v935h180v-947c0 -156.667 -51.5 -284.167 -154.5 -382.5s-242.5 -147.5 -418.5 -147.5
s-315.5 49.167 -418.5 147.5s-154.5 225.833 -154.5 382.5v947h180zM559.998 1575c-32.667 0 -60.334 11.333 -83.001 34s-34 50.334 -34 83.001s11.333 60.334 34 83.001s50.334 34 83.001 34s60.334 -11.333 83.001 -34s34 -50.334 34 -83.001
s-11.333 -60.334 -34 -83.001s-50.334 -34 -83.001 -34zM963.998 1575c-32.667 0 -60.334 11.333 -83.001 34s-34 50.334 -34 83.001s11.333 60.334 34 83.001s50.334 34 83.001 34s60.334 -11.333 83.001 -34s34 -50.334 34 -83.001s-11.333 -60.334 -34 -83.001
s-50.334 -34 -83.001 -34zM859.998 1862h-196l-294 233h222l162 -135h16l162 135h222z" />
    <glyph glyph-name="udieresiscaron" unicode="&#x1da;" horiz-adv-x="1196" 
d="M1034 1078v-1078h-164v169h-16c-27.333 -60.667 -69.333 -107.167 -126 -139.5s-126 -48.5 -208 -48.5c-120 0 -211.333 34.333 -274 103s-94 167.334 -94 296.001v698h172v-656c0 -98 19.333 -169.833 58 -215.5s100.667 -68.5 186 -68.5c94 0 166.5 26.5 217.5 79.5
s76.5 127.167 76.5 222.5v638h172zM391 1228c-32.667 0 -60.334 11.333 -83.001 34s-34 50.334 -34 83.001s11.333 60.334 34 83.001s50.334 34 83.001 34s60.334 -11.333 83.001 -34s34 -50.334 34 -83.001s-11.333 -60.334 -34 -83.001s-50.334 -34 -83.001 -34zM795 1228
c-32.667 0 -60.334 11.333 -83.001 34s-34 50.334 -34 83.001s11.333 60.334 34 83.001s50.334 34 83.001 34s60.334 -11.333 83.001 -34s34 -50.334 34 -83.001s-11.333 -60.334 -34 -83.001s-50.334 -34 -83.001 -34zM694 1575h-202l-282 320h200l175 -207h16l175 207h200
z" />
    <glyph glyph-name="Udieresisgrave" unicode="&#x1db;" horiz-adv-x="1524" 
d="M369 1443l-0.00195312 -935c0 -111.333 34.833 -201.833 104.5 -271.5s165.834 -104.5 288.501 -104.5s218.834 34.833 288.501 104.5s104.5 160.167 104.5 271.5v935h180v-947c0 -156.667 -51.5 -284.167 -154.5 -382.5s-242.5 -147.5 -418.5 -147.5
s-315.5 49.167 -418.5 147.5s-154.5 225.833 -154.5 382.5v947h180zM867.998 1873h-176l-281 222h227zM559.998 1575c-33.333 0 -61.833 11.833 -85.5 35.5s-35.5 52.167 -35.5 85.5s11.833 61.833 35.5 85.5s52.167 35.5 85.5 35.5s61.833 -11.833 85.5 -35.5
s35.5 -52.167 35.5 -85.5s-11.833 -61.833 -35.5 -85.5s-52.167 -35.5 -85.5 -35.5zM963.998 1575c-33.333 0 -61.833 11.833 -85.5 35.5s-35.5 52.167 -35.5 85.5s11.833 61.833 35.5 85.5s52.167 35.5 85.5 35.5s61.833 -11.833 85.5 -35.5s35.5 -52.167 35.5 -85.5
s-11.833 -61.833 -35.5 -85.5s-52.167 -35.5 -85.5 -35.5z" />
    <glyph glyph-name="udieresisgrave" unicode="&#x1dc;" horiz-adv-x="1196" 
d="M1034 1078v-1078h-164v169h-16c-27.333 -60.667 -69.333 -107.167 -126 -139.5s-126 -48.5 -208 -48.5c-120 0 -211.333 34.333 -274 103s-94 167.334 -94 296.001v698h172v-656c0 -98 19.333 -169.833 58 -215.5s100.667 -68.5 186 -68.5c94 0 166.5 26.5 217.5 79.5
s76.5 127.167 76.5 222.5v638h172zM693 1575h-170l-218 298h198zM391 1228c-33.333 0 -61.833 11.833 -85.5 35.5s-35.5 52.167 -35.5 85.5s11.833 61.833 35.5 85.5s52.167 35.5 85.5 35.5s61.833 -11.833 85.5 -35.5s35.5 -52.167 35.5 -85.5s-11.833 -61.833 -35.5 -85.5
s-52.167 -35.5 -85.5 -35.5zM795 1228c-33.333 0 -61.833 11.833 -85.5 35.5s-35.5 52.167 -35.5 85.5s11.833 61.833 35.5 85.5s52.167 35.5 85.5 35.5s61.833 -11.833 85.5 -35.5s35.5 -52.167 35.5 -85.5s-11.833 -61.833 -35.5 -85.5s-52.167 -35.5 -85.5 -35.5z" />
    <glyph glyph-name="Adieresismacron" unicode="&#x1de;" horiz-adv-x="1380" 
d="M1122 0l-145 413h-574l-145 -413h-189l532 1443h178l532 -1443h-189zM682 1210l-226 -644h468l-226 644h-16zM353 1932v130h674v-130h-674zM488 1575c-32.667 0 -60.334 11.333 -83.001 34s-34 50.334 -34 83.001s11.333 60.334 34 83.001s50.334 34 83.001 34
s60.334 -11.333 83.001 -34s34 -50.334 34 -83.001s-11.333 -60.334 -34 -83.001s-50.334 -34 -83.001 -34zM892 1575c-32.667 0 -60.334 11.333 -83.001 34s-34 50.334 -34 83.001s11.333 60.334 34 83.001s50.334 34 83.001 34s60.334 -11.333 83.001 -34
s34 -50.334 34 -83.001s-11.333 -60.334 -34 -83.001s-50.334 -34 -83.001 -34z" />
    <glyph glyph-name="adieresismacron" unicode="&#x1df;" horiz-adv-x="1130" 
d="M494 132c88.667 0 162.167 25.6689 220.5 77.002s87.5 115.666 87.5 192.999v99l-290 -19c-81.333 -5.33301 -141 -22.333 -179 -51s-57 -70.334 -57 -125.001c0 -54 20.333 -96.5 61 -127.5s93 -46.5 157 -46.5zM462 -18.998c-106 0 -193.166 29.168 -261.499 87.501
s-102.5 136.166 -102.5 233.499c0 96 34 171.333 102 226s165 85.667 291 93l311 19v98c0 66.667 -20.667 117.667 -62 153s-102 53 -182 53c-64.667 0 -118.334 -11.667 -161.001 -35s-70 -56.333 -82 -99h-174c11.333 86 55.833 155.333 133.5 208s174.167 79 289.5 79
c130.667 0 231.667 -31.667 303 -95s107 -151.333 107 -264v-738h-164v159h-16c-34.667 -57.333 -80.667 -101.333 -138 -132s-122 -46 -194 -46zM362.001 1228c-32.667 0 -60.334 11.333 -83.001 34s-34 50.334 -34 83.001s11.333 60.334 34 83.001s50.334 34 83.001 34
s60.334 -11.333 83.001 -34s34 -50.334 34 -83.001s-11.333 -60.334 -34 -83.001s-50.334 -34 -83.001 -34zM766.001 1228c-32.667 0 -60.334 11.333 -83.001 34s-34 50.334 -34 83.001s11.333 60.334 34 83.001s50.334 34 83.001 34s60.334 -11.333 83.001 -34
s34 -50.334 34 -83.001s-11.333 -60.334 -34 -83.001s-50.334 -34 -83.001 -34zM901.001 1620h-674v136h674v-136z" />
    <glyph glyph-name="Adotmacron" unicode="&#x1e0;" horiz-adv-x="1380" 
d="M1122 0l-145 413h-574l-145 -413h-189l532 1443h178l532 -1443h-189zM682 1210l-226 -644h468l-226 644h-16zM690 1577c-33.333 0 -61.5 11.5 -84.5 34.5s-34.5 51.167 -34.5 84.5s11.5 61.5 34.5 84.5s51.167 34.5 84.5 34.5s61.5 -11.5 84.5 -34.5
s34.5 -51.167 34.5 -84.5s-11.5 -61.5 -34.5 -84.5s-51.167 -34.5 -84.5 -34.5zM1027 1932h-674v130h674v-130z" />
    <glyph glyph-name="adotmacron" unicode="&#x1e1;" horiz-adv-x="1130" 
d="M494 132c88.667 0 162.167 25.6689 220.5 77.002s87.5 115.666 87.5 192.999v99l-290 -19c-81.333 -5.33301 -141 -22.333 -179 -51s-57 -70.334 -57 -125.001c0 -54 20.333 -96.5 61 -127.5s93 -46.5 157 -46.5zM462 -18.998c-106 0 -193.166 29.168 -261.499 87.501
s-102.5 136.166 -102.5 233.499c0 96 34 171.333 102 226s165 85.667 291 93l311 19v98c0 66.667 -20.667 117.667 -62 153s-102 53 -182 53c-64.667 0 -118.334 -11.667 -161.001 -35s-70 -56.333 -82 -99h-174c11.333 86 55.833 155.333 133.5 208s174.167 79 289.5 79
c130.667 0 231.667 -31.667 303 -95s107 -151.333 107 -264v-738h-164v159h-16c-34.667 -57.333 -80.667 -101.333 -138 -132s-122 -46 -194 -46zM564.001 1228c-33.333 0 -61.5 11.5 -84.5 34.5s-34.5 51.167 -34.5 84.5s11.5 61.5 34.5 84.5s51.167 34.5 84.5 34.5
s61.5 -11.5 84.5 -34.5s34.5 -51.167 34.5 -84.5s-11.5 -61.5 -34.5 -84.5s-51.167 -34.5 -84.5 -34.5zM901.001 1620h-674v136h674v-136z" />
    <glyph glyph-name="AEmacron" unicode="&#x1e2;" horiz-adv-x="1966" 
d="M986 1292h-147l-310 -680h457v680zM986 0v459h-527l-209 -459h-181l651 1443h1104v-162h-658v-473h621v-160h-621v-486h658v-162h-838zM1776 1620h-674v136h674v-136z" />
    <glyph glyph-name="aemacron" unicode="&#x1e3;" horiz-adv-x="1849" 
d="M1287 -19c-86 0 -164.67 21.6689 -236.003 65.002s-121.333 98.666 -150 165.999h-16c-35.333 -72.667 -88.166 -129.334 -158.499 -170.001s-152.833 -61 -247.5 -61c-114 0 -206 29 -276 87s-105 136 -105 234c0 96 34 171.333 102 226s165 85.667 291 93l311 19v98
c0 66.667 -20.667 117.667 -62 153s-102 53 -182 53c-64.667 0 -118.334 -11.667 -161.001 -35s-70 -56.333 -82 -99h-174c11.333 86.667 55.833 156.167 133.5 208.5s174.167 78.5 289.5 78.5c82.667 0 154.167 -16.833 214.5 -50.5s104.833 -78.5 133.5 -134.5h16
c32 54 80.5 98.333 145.5 133s135.5 52 211.5 52c142.667 0 254.334 -46.833 335.001 -140.5s121 -223.167 121 -388.5v-68h-768v-18c4.66699 -106 35.667 -190.5 93 -253.5s132.333 -94.5 225 -94.5c66.667 0 121.5 11.833 164.5 35.5s76.167 60.167 99.5 109.5h172
c-27.333 -95.333 -79.166 -168.833 -155.499 -220.5s-171.166 -77.5 -284.499 -77.5zM1276 946.002c-86.667 0 -157.167 -27.5 -211.5 -82.5s-84.833 -129.833 -91.5 -224.5h587c-2 90 -29.5 163.667 -82.5 221s-120.167 86 -201.5 86zM503.997 132.002
c85.333 0 156.332 26.834 212.999 80.501s85 119.5 85 197.5v91l-290 -19c-81.333 -5.33301 -141 -22.333 -179 -51s-57 -70.334 -57 -125.001c0 -54 20.833 -96.5 62.5 -127.5s96.834 -46.5 165.501 -46.5zM1276 1286h-674v136h674v-136z" />
    <glyph glyph-name="Gcaron" unicode="&#x1e6;" horiz-adv-x="1529" 
d="M1395 558c0 -178 -56.001 -321.168 -168.001 -429.501s-260.333 -162.5 -445 -162.5c-199.333 0 -358.166 68.333 -476.499 205s-177.5 320.334 -177.5 551.001c0 228 59.667 410.833 179 548.5s277.666 206.5 474.999 206.5c160 0 294.167 -41.667 402.5 -125
s175.5 -196.333 201.5 -339h-183c-31.333 97.333 -82.666 171.333 -153.999 222s-160.333 76 -267 76c-142.667 0 -256.5 -53.333 -341.5 -160s-127.5 -249.667 -127.5 -429c0 -182 42.167 -325.833 126.5 -431.5s198.833 -158.5 343.5 -158.5
c129.333 0 233.833 37.667 313.5 113s119.5 174 119.5 296v35h-406v158h585v-176zM863.999 1575h-164l-300 298h202l172 -177h16l172 177h202z" />
    <glyph glyph-name="gcaron" unicode="&#x1e7;" horiz-adv-x="1248" 
d="M918 555c0 118 -28.667 211.998 -86 281.998s-135.333 105 -234 105s-175.334 -34.667 -230.001 -104s-82 -163.666 -82 -282.999s27.333 -213.666 82 -282.999s131.334 -104 230.001 -104c99.333 0 177.5 35 234.5 105s85.5 164 85.5 282zM606 -414.002
c-128.667 0 -232.831 26.666 -312.498 79.999s-126.167 125 -139.5 215h182c9.33301 -44.667 37.666 -80 84.999 -106s109 -39 185 -39c96.667 0 172.167 22.5 226.5 67.5s81.5 107.167 81.5 186.5v212h-16c-34 -59.333 -80.333 -105.166 -139 -137.499
s-125 -48.5 -199 -48.5c-138.667 0 -248.667 49.167 -330 147.5s-122 228.833 -122 391.5s41 293.667 123 393s191.667 149 329 149c75.333 0 144 -17.167 206 -51.5s108.667 -80.5 140 -138.5h16v171h164v-1097c0 -120.667 -43.333 -216.667 -130 -288
s-203.334 -107 -350.001 -107zM695.003 1228h-202l-282 340h198l177 -227h16l177 227h198z" />
    <glyph glyph-name="Kcaron" unicode="&#x1e8;" horiz-adv-x="1349" 
d="M364 0h-180v1443h180v-701h16l632 701h226l-577 -623l630 -820h-233l-521 695l-173 -191v-504zM735 1575h-164l-300 298h202l172 -177h16l172 177h202z" />
    <glyph glyph-name="kcaron" unicode="&#x1e9;" horiz-adv-x="1112" 
d="M360 607l468 471h211l-464 -462l495 -616h-219l-404 505l-103 -96v-409h-172v1506h172v-899h16zM340 1638h-164l-300 298h202l172 -177h16l172 177h202z" />
    <glyph glyph-name="Oogonek" unicode="&#x1ea;" horiz-adv-x="1579" 
d="M1058 -432c-70.667 0 -128.83 19.1699 -174.497 57.5029s-68.5 87.166 -68.5 146.499c0 82 43.667 151.333 131 208v16c-13.333 -8.66699 -34.833 -15.834 -64.5 -21.501s-59.834 -8.5 -90.501 -8.5c-204.667 0 -366.334 67.667 -485.001 203s-178 319.666 -178 552.999
c0 232 59.5 415.833 178.5 551.5s280.5 203.5 484.5 203.5c203.333 0 364.166 -67.667 482.499 -203s177.5 -319.333 177.5 -552c0 -144.667 -26.167 -272.5 -78.5 -383.5s-137.5 -219.167 -255.5 -324.5c-88.667 -78.667 -133 -146.667 -133 -204
c0 -28.667 10.5 -52.167 31.5 -70.5s47.833 -27.5 80.5 -27.5c29.333 0 51.333 2 66 6v-134c-30 -10.667 -64.667 -16 -104 -16zM791.004 1311c-146.667 0 -263 -53 -349 -159s-129 -249.333 -129 -430c0 -182 42.833 -325.833 128.5 -431.5s202.167 -158.5 349.5 -158.5
c146 0 261.667 53 347 159s128 249.667 128 431s-42.5 324.833 -127.5 430.5s-200.833 158.5 -347.5 158.5z" />
    <glyph glyph-name="oogonek" unicode="&#x1eb;" horiz-adv-x="1210" 
d="M605 136c101.333 0 179.833 35.167 235.5 105.5s83.5 169.5 83.5 297.5c0 128.667 -27.833 228 -83.5 298s-134.167 105 -235.5 105s-179.833 -35 -235.5 -105s-83.5 -169.333 -83.5 -298c0 -128 27.833 -227.167 83.5 -297.5s134.167 -105.5 235.5 -105.5zM555 -228
c0 82 43.6689 151.332 131.002 207.999v16c-17.333 -10 -44.333 -15 -81 -15c-154 0 -275.333 49.833 -364 149.5s-133 235.834 -133 408.501s44.333 308.834 133 408.501s210 149.5 364 149.5s275.333 -49.833 364 -149.5s133 -235.834 133 -408.501
c0 -105.333 -19.5 -201 -58.5 -287s-101.167 -166.667 -186.5 -242c-88.667 -79.333 -133 -146 -133 -200c0 -30.667 11 -54.667 33 -72s48.333 -26 79 -26c28 0 50 2 66 6v-134c-30.667 -10.667 -65.334 -16 -104.001 -16c-72.667 0 -131.334 19.5 -176.001 58.5
s-67 87.5 -67 145.5z" />
    <glyph glyph-name="Oogonekmacron" unicode="&#x1ec;" horiz-adv-x="1579" 
d="M1058 -432c-70.667 0 -128.83 19.1699 -174.497 57.5029s-68.5 87.166 -68.5 146.499c0 82 43.667 151.333 131 208v16c-13.333 -8.66699 -34.833 -15.834 -64.5 -21.501s-59.834 -8.5 -90.501 -8.5c-204.667 0 -366.334 67.667 -485.001 203s-178 319.666 -178 552.999
c0 232 59.5 415.833 178.5 551.5s280.5 203.5 484.5 203.5c203.333 0 364.166 -67.667 482.499 -203s177.5 -319.333 177.5 -552c0 -144.667 -26.167 -272.5 -78.5 -383.5s-137.5 -219.167 -255.5 -324.5c-88.667 -78.667 -133 -146.667 -133 -204
c0 -28.667 10.5 -52.167 31.5 -70.5s47.833 -27.5 80.5 -27.5c29.333 0 51.333 2 66 6v-134c-30 -10.667 -64.667 -16 -104 -16zM791.004 1311c-146.667 0 -263 -53 -349 -159s-129 -249.333 -129 -430c0 -182 42.833 -325.833 128.5 -431.5s202.167 -158.5 349.5 -158.5
c146 0 261.667 53 347 159s128 249.667 128 431s-42.5 324.833 -127.5 430.5s-200.833 158.5 -347.5 158.5zM1128 1620h-674v136h674v-136z" />
    <glyph glyph-name="oogonekmacron" unicode="&#x1ed;" horiz-adv-x="1210" 
d="M605 136c101.333 0 179.833 35.167 235.5 105.5s83.5 169.5 83.5 297.5c0 128.667 -27.833 228 -83.5 298s-134.167 105 -235.5 105s-179.833 -35 -235.5 -105s-83.5 -169.333 -83.5 -298c0 -128 27.833 -227.167 83.5 -297.5s134.167 -105.5 235.5 -105.5zM555 -228
c0 82 43.6689 151.332 131.002 207.999v16c-17.333 -10 -44.333 -15 -81 -15c-154 0 -275.333 49.833 -364 149.5s-133 235.834 -133 408.501s44.333 308.834 133 408.501s210 149.5 364 149.5s275.333 -49.833 364 -149.5s133 -235.834 133 -408.501
c0 -105.333 -19.5 -201 -58.5 -287s-101.167 -166.667 -186.5 -242c-88.667 -79.333 -133 -146 -133 -200c0 -30.667 11 -54.667 33 -72s48.333 -26 79 -26c28 0 50 2 66 6v-134c-30.667 -10.667 -65.334 -16 -104.001 -16c-72.667 0 -131.334 19.5 -176.001 58.5
s-67 87.5 -67 145.5zM942.002 1286h-674v136h674v-136z" />
    <glyph glyph-name="u01F1" unicode="&#x1f1;" horiz-adv-x="2842" 
d="M184 1443h495.001c214 0 381 -63.5 501 -190.5s180 -303.833 180 -530.5c0 -227.333 -59.833 -404.5 -179.5 -531.5s-286.834 -190.5 -501.501 -190.5h-495v1443zM364.001 1281v-1119h303c160.667 0 285.667 49 375 147s134 235 134 411
c0 176.667 -44.833 314.334 -134.5 413.001s-214.5 148 -374.5 148h-303zM1631 -0.000976562v128l817 1137v16h-789v162h1022v-128l-813 -1137v-16h830v-162h-1067z" />
    <glyph glyph-name="u01F2" unicode="&#x1f2;" horiz-adv-x="2591" 
d="M184 1443h495.001c214 0 381 -63.5 501 -190.5s180 -303.833 180 -530.5c0 -227.333 -59.833 -404.5 -179.5 -531.5s-286.834 -190.5 -501.501 -190.5h-495v1443zM364.001 1281v-1119h303c160.667 0 285.667 49 375 147s134 235 134 411
c0 176.667 -44.833 314.334 -134.5 413.001s-214.5 148 -374.5 148h-303zM1624 -0.000976562v126l622 792v16h-621v144h826v-129l-619 -789v-16h622v-144h-830z" />
    <glyph glyph-name="u01F3" unicode="&#x1f3;" horiz-adv-x="2362" 
d="M561 -19c-138 0 -247.999 50.668 -329.999 152.001s-123 236.666 -123 405.999c0 168.667 41.167 303.834 123.5 405.501s192.166 152.5 329.499 152.5c75.333 0 142.833 -16.833 202.5 -50.5s104.834 -79.834 135.501 -138.501h15v598h172v-1506h-164v172h-16
c-34 -60 -81.333 -106.833 -142 -140.5s-128.334 -50.5 -203.001 -50.5zM601.001 942.001c-98 0 -175.001 -35.833 -231.001 -107.5s-84 -170.167 -84 -295.5c0 -126 27.833 -224.667 83.5 -296s132.834 -107 231.501 -107c98 0 175.333 36 232 108s85 170.333 85 295
c0 123.333 -28.5 221.333 -85.5 294s-134.167 109 -231.5 109zM1395 0.000976562v126l622 792v16h-621v144h826v-129l-619 -789v-16h622v-144h-830z" />
    <glyph glyph-name="Gacute" unicode="&#x1f4;" horiz-adv-x="1529" 
d="M1395 558c0 -178 -56.001 -321.168 -168.001 -429.501s-260.333 -162.5 -445 -162.5c-199.333 0 -358.166 68.333 -476.499 205s-177.5 320.334 -177.5 551.001c0 228 59.667 410.833 179 548.5s277.666 206.5 474.999 206.5c160 0 294.167 -41.667 402.5 -125
s175.5 -196.333 201.5 -339h-183c-31.333 97.333 -82.666 171.333 -153.999 222s-160.333 76 -267 76c-142.667 0 -256.5 -53.333 -341.5 -160s-127.5 -249.667 -127.5 -429c0 -182 42.167 -325.833 126.5 -431.5s198.833 -158.5 343.5 -158.5
c129.333 0 233.833 37.667 313.5 113s119.5 174 119.5 296v35h-406v158h585v-176zM675.999 1575l310 298h226l-332 -298h-204z" />
    <glyph glyph-name="gacute" unicode="&#x1f5;" horiz-adv-x="1248" 
d="M918 555c0 118 -28.667 211.998 -86 281.998s-135.333 105 -234 105s-175.334 -34.667 -230.001 -104s-82 -163.666 -82 -282.999s27.333 -213.666 82 -282.999s131.334 -104 230.001 -104c99.333 0 177.5 35 234.5 105s85.5 164 85.5 282zM606 -414.002
c-128.667 0 -232.831 26.666 -312.498 79.999s-126.167 125 -139.5 215h182c9.33301 -44.667 37.666 -80 84.999 -106s109 -39 185 -39c96.667 0 172.167 22.5 226.5 67.5s81.5 107.167 81.5 186.5v212h-16c-34 -59.333 -80.333 -105.166 -139 -137.499
s-125 -48.5 -199 -48.5c-138.667 0 -248.667 49.167 -330 147.5s-122 228.833 -122 391.5s41 293.667 123 393s191.667 149 329 149c75.333 0 144 -17.167 206 -51.5s108.667 -80.5 140 -138.5h16v171h164v-1097c0 -120.667 -43.333 -216.667 -130 -288
s-203.334 -107 -350.001 -107zM480.003 1263l252 338h220l-278 -338h-194z" />
    <glyph glyph-name="Ngrave" unicode="&#x1f8;" horiz-adv-x="1520" 
d="M362 0h-178v1443h175l783 -1123h16v1123h178v-1443h-175l-783 1119h-16v-1119zM548 1873l310 -298h-204l-332 298h226z" />
    <glyph glyph-name="ngrave" unicode="&#x1f9;" horiz-adv-x="1195" 
d="M162 0v1078h164v-170h16c57.333 126 165.333 189 324 189c120.667 0 213.667 -34.5 279 -103.5s98 -167.5 98 -295.5v-698h-172v656c0 96.667 -20.833 168.5 -62.5 215.5s-105.5 70.5 -191.5 70.5c-86.667 0 -155.5 -27.167 -206.5 -81.5s-76.5 -128.5 -76.5 -222.5v-638
h-172zM725 1263h-194l-278 338h220z" />
    <glyph glyph-name="Aringacute" unicode="&#x1fa;" horiz-adv-x="1380" 
d="M1122 0l-145 413h-574l-145 -413h-189l532 1443h178l532 -1443h-189zM682 1210l-226 -644h468l-226 644h-16zM590 1730c0 -28.667 9.5 -52.834 28.5 -72.501s42.833 -29.5 71.5 -29.5s52.5 9.83301 71.5 29.5s28.5 43.834 28.5 72.501s-9.5 52.834 -28.5 72.501
s-42.833 29.5 -71.5 29.5s-52.5 -9.83301 -71.5 -29.5s-28.5 -43.834 -28.5 -72.501zM690 1533c-56 0 -103.667 19.167 -143 57.5s-59 85.166 -59 140.499s19.667 102.166 59 140.499s87 57.5 143 57.5s103.667 -19.167 143 -57.5s59 -85.166 59 -140.499
s-19.667 -102.166 -59 -140.499s-87 -57.5 -143 -57.5zM760 2173h187l-174 -181h-161z" />
    <glyph glyph-name="aringacute" unicode="&#x1fb;" horiz-adv-x="1130" 
d="M494 132c88.667 0 162.167 25.6689 220.5 77.002s87.5 115.666 87.5 192.999v99l-290 -19c-81.333 -5.33301 -141 -22.333 -179 -51s-57 -70.334 -57 -125.001c0 -54 20.333 -96.5 61 -127.5s93 -46.5 157 -46.5zM462 -18.998c-106 0 -193.166 29.168 -261.499 87.501
s-102.5 136.166 -102.5 233.499c0 96 34 171.333 102 226s165 85.667 291 93l311 19v98c0 66.667 -20.667 117.667 -62 153s-102 53 -182 53c-64.667 0 -118.334 -11.667 -161.001 -35s-70 -56.333 -82 -99h-174c11.333 86 55.833 155.333 133.5 208s174.167 79 289.5 79
c130.667 0 231.667 -31.667 303 -95s107 -151.333 107 -264v-738h-164v159h-16c-34.667 -57.333 -80.667 -101.333 -138 -132s-122 -46 -194 -46zM564.001 1200c-56 0 -103.667 19.333 -143 58s-59 85.334 -59 140.001s19.667 101.334 59 140.001s87 58 143 58
s103.667 -19.333 143 -58s59 -85.334 59 -140.001s-19.667 -101.334 -59 -140.001s-87 -58 -143 -58zM464.001 1397c0 -28.667 9.66699 -52.834 29 -72.501s43 -29.5 71 -29.5s51.667 9.83301 71 29.5s29 43.834 29 72.501s-9.66699 52.834 -29 72.501s-43 29.5 -71 29.5
s-51.667 -9.83301 -71 -29.5s-29 -43.834 -29 -72.501zM479.001 1683l166 226h199l-194 -226h-171z" />
    <glyph glyph-name="AEacute" unicode="&#x1fc;" horiz-adv-x="1966" 
d="M986 1292h-147l-310 -680h457v680zM986 0v459h-527l-209 -459h-181l651 1443h1104v-162h-658v-473h621v-160h-621v-486h658v-162h-838zM1333 1575l310 298h226l-332 -298h-204z" />
    <glyph glyph-name="aeacute" unicode="&#x1fd;" horiz-adv-x="1849" 
d="M1287 -19c-86 0 -164.67 21.6689 -236.003 65.002s-121.333 98.666 -150 165.999h-16c-35.333 -72.667 -88.166 -129.334 -158.499 -170.001s-152.833 -61 -247.5 -61c-114 0 -206 29 -276 87s-105 136 -105 234c0 96 34 171.333 102 226s165 85.667 291 93l311 19v98
c0 66.667 -20.667 117.667 -62 153s-102 53 -182 53c-64.667 0 -118.334 -11.667 -161.001 -35s-70 -56.333 -82 -99h-174c11.333 86.667 55.833 156.167 133.5 208.5s174.167 78.5 289.5 78.5c82.667 0 154.167 -16.833 214.5 -50.5s104.833 -78.5 133.5 -134.5h16
c32 54 80.5 98.333 145.5 133s135.5 52 211.5 52c142.667 0 254.334 -46.833 335.001 -140.5s121 -223.167 121 -388.5v-68h-768v-18c4.66699 -106 35.667 -190.5 93 -253.5s132.333 -94.5 225 -94.5c66.667 0 121.5 11.833 164.5 35.5s76.167 60.167 99.5 109.5h172
c-27.333 -95.333 -79.166 -168.833 -155.499 -220.5s-171.166 -77.5 -284.499 -77.5zM1276 946.002c-86.667 0 -157.167 -27.5 -211.5 -82.5s-84.833 -129.833 -91.5 -224.5h587c-2 90 -29.5 163.667 -82.5 221s-120.167 86 -201.5 86zM503.997 132.002
c85.333 0 156.332 26.834 212.999 80.501s85 119.5 85 197.5v91l-290 -19c-81.333 -5.33301 -141 -22.333 -179 -51s-57 -70.334 -57 -125.001c0 -54 20.833 -96.5 62.5 -127.5s96.834 -46.5 165.501 -46.5zM824.996 1263l252 338h220l-278 -338h-194z" />
    <glyph glyph-name="Oslashacute" unicode="&#x1fe;" horiz-adv-x="1551" 
d="M1206 1873l-332 -298h-204l310 298h226zM1158 1127l-675 -881c81.333 -76 184 -114 308 -114c147.333 0 263.333 53.333 348 160s127 250 127 430c0 166 -36 301 -108 405zM403 346l672 870.999c-78 62.667 -172.667 94 -284 94c-146.667 0 -263 -53 -349 -159
s-129 -249.333 -129 -430c0 -151.333 30 -276.666 90 -375.999zM1382 1419l-110 -142.999c119.333 -134.667 179 -319.334 179 -554.001c0 -232 -58.833 -416 -176.5 -552s-278.834 -204 -483.501 -204c-165.333 0 -304.666 45.667 -417.999 137l-115 -150l-100 76l127 165
c-104.667 133.333 -157 309.333 -157 528c0 232 59.5 415.833 178.5 551.5s280.5 203.5 484.5 203.5c154 0 284.667 -39.667 392 -119l101 130z" />
    <glyph glyph-name="oslashacute" unicode="&#x1ff;" horiz-adv-x="1210" 
d="M939 1601l-278 -338h-194l252 338h220zM856 815l-427.001 -629c48.667 -33.333 107.334 -50 176.001 -50c102 0 180.667 35.167 236 105.5s83 169.5 83 297.5c0 116.667 -22.667 208.667 -68 276zM343.999 280l425 619.999c-46 28 -100.667 42 -164 42
c-102 0 -180.667 -35.167 -236 -105.5s-83 -169.5 -83 -297.5c0 -105.333 19.333 -191.666 58 -258.999zM1018 1054l-62.001 -91.998c97.333 -99.333 146 -240.333 146 -423c0 -172.667 -44.5 -308.834 -133.5 -408.501s-210.167 -149.5 -363.5 -149.5
c-103.333 0 -192.666 23 -267.999 69l-59 -87l-104 69l67 98c-88.667 100 -133 236.333 -133 409c0 173.333 44.333 309.666 133 408.999s210 149 364 149c96 0 181.333 -20.667 256 -62l57 83z" />
    <glyph glyph-name="Adblgrave" unicode="&#x200;" horiz-adv-x="1380" 
d="M1122 0l-145 413h-574l-145 -413h-189l532 1443h178l532 -1443h-189zM682 1210l-226 -644h468l-226 644h-16zM600 1575h-204l-332 298h226zM1014 1575h-204l-332 298h226z" />
    <glyph glyph-name="adblgrave" unicode="&#x201;" horiz-adv-x="1130" 
d="M494 132c88.667 0 162.167 25.6689 220.5 77.002s87.5 115.666 87.5 192.999v99l-290 -19c-81.333 -5.33301 -141 -22.333 -179 -51s-57 -70.334 -57 -125.001c0 -54 20.333 -96.5 61 -127.5s93 -46.5 157 -46.5zM462 -18.998c-106 0 -193.166 29.168 -261.499 87.501
s-102.5 136.166 -102.5 233.499c0 96 34 171.333 102 226s165 85.667 291 93l311 19v98c0 66.667 -20.667 117.667 -62 153s-102 53 -182 53c-64.667 0 -118.334 -11.667 -161.001 -35s-70 -56.333 -82 -99h-174c11.333 86 55.833 155.333 133.5 208s174.167 79 289.5 79
c130.667 0 231.667 -31.667 303 -95s107 -151.333 107 -264v-738h-164v159h-16c-34.667 -57.333 -80.667 -101.333 -138 -132s-122 -46 -194 -46zM483.001 1263h-182l-280 338h210zM883.001 1263h-182l-280 338h210z" />
    <glyph glyph-name="Ainvertedbreve" unicode="&#x202;" horiz-adv-x="1380" 
d="M1122 0l-145 413h-574l-145 -413h-189l532 1443h178l532 -1443h-189zM682 1210l-226 -644h468l-226 644h-16zM326 1575c0 90 32.6689 162.167 98.002 216.5s154 81.5 266 81.5s200.667 -27.167 266 -81.5s98 -126.5 98 -216.5h-154c0 52.667 -18.833 94.667 -56.5 126
s-88.834 47 -153.501 47s-115.834 -15.667 -153.501 -47s-56.5 -73.333 -56.5 -126h-154z" />
    <glyph glyph-name="ainvertedbreve" unicode="&#x203;" horiz-adv-x="1130" 
d="M494 132c88.667 0 162.167 25.6689 220.5 77.002s87.5 115.666 87.5 192.999v99l-290 -19c-81.333 -5.33301 -141 -22.333 -179 -51s-57 -70.334 -57 -125.001c0 -54 20.333 -96.5 61 -127.5s93 -46.5 157 -46.5zM462 -18.998c-106 0 -193.166 29.168 -261.499 87.501
s-102.5 136.166 -102.5 233.499c0 96 34 171.333 102 226s165 85.667 291 93l311 19v98c0 66.667 -20.667 117.667 -62 153s-102 53 -182 53c-64.667 0 -118.334 -11.667 -161.001 -35s-70 -56.333 -82 -99h-174c11.333 86 55.833 155.333 133.5 208s174.167 79 289.5 79
c130.667 0 231.667 -31.667 303 -95s107 -151.333 107 -264v-738h-164v159h-16c-34.667 -57.333 -80.667 -101.333 -138 -132s-122 -46 -194 -46zM200.001 1228c0 96.667 32.667 175.5 98 236.5s154 91.5 266 91.5s200.667 -30.5 266 -91.5s98 -139.833 98 -236.5h-154
c0 59.333 -18.5 107.5 -55.5 144.5s-88.5 55.5 -154.5 55.5s-117.5 -18.5 -154.5 -55.5s-55.5 -85.167 -55.5 -144.5h-154z" />
    <glyph glyph-name="Edblgrave" unicode="&#x204;" horiz-adv-x="1220" 
d="M1078 162v-162h-894v1443h894v-162h-714v-463h677v-160h-677v-496h714zM541 1575h-204l-332 298h226zM955 1575h-204l-332 298h226z" />
    <glyph glyph-name="edblgrave" unicode="&#x205;" horiz-adv-x="1170" 
d="M592 945c-86 0 -156.667 -29 -212 -87s-86.333 -134.667 -93 -230h594c-2 95.333 -29.333 172 -82 230s-121.667 87 -207 87zM876 279l171.999 0.000976562c-26 -93.333 -78.833 -166.333 -158.5 -219s-178.167 -79 -295.5 -79
c-149.333 0 -267.666 50.167 -354.999 150.5s-131 235.833 -131 406.5c0 170 44 305.667 132 407s206 152 354 152c145.333 0 259.666 -48.333 342.999 -145s125 -229 125 -397v-66h-775v-8c4.66699 -106.667 34.834 -191.334 90.501 -254.001s129.167 -94 220.5 -94
c139.333 0 232 48.667 278 146zM512.999 1263h-182l-280 338h210zM912.999 1263h-182l-280 338h210z" />
    <glyph glyph-name="Einvertedbreve" unicode="&#x206;" horiz-adv-x="1220" 
d="M1078 162v-162h-894v1443h894v-162h-714v-463h677v-160h-677v-496h714zM267 1575c0 90 32.6689 162.167 98.002 216.5s154 81.5 266 81.5s200.667 -27.167 266 -81.5s98 -126.5 98 -216.5h-154c0 52.667 -18.833 94.667 -56.5 126s-88.834 47 -153.501 47
s-115.834 -15.667 -153.501 -47s-56.5 -73.333 -56.5 -126h-154z" />
    <glyph glyph-name="einvertedbreve" unicode="&#x207;" horiz-adv-x="1170" 
d="M592 945c-86 0 -156.667 -29 -212 -87s-86.333 -134.667 -93 -230h594c-2 95.333 -29.333 172 -82 230s-121.667 87 -207 87zM876 279l171.999 0.000976562c-26 -93.333 -78.833 -166.333 -158.5 -219s-178.167 -79 -295.5 -79
c-149.333 0 -267.666 50.167 -354.999 150.5s-131 235.833 -131 406.5c0 170 44 305.667 132 407s206 152 354 152c145.333 0 259.666 -48.333 342.999 -145s125 -229 125 -397v-66h-775v-8c4.66699 -106.667 34.834 -191.334 90.501 -254.001s129.167 -94 220.5 -94
c139.333 0 232 48.667 278 146zM229.999 1228c0 96.667 32.667 175.5 98 236.5s154 91.5 266 91.5s200.667 -30.5 266 -91.5s98 -139.833 98 -236.5h-154c0 59.333 -18.5 107.5 -55.5 144.5s-88.5 55.5 -154.5 55.5s-117.5 -18.5 -154.5 -55.5s-55.5 -85.167 -55.5 -144.5
h-154z" />
    <glyph glyph-name="Idblgrave" unicode="&#x208;" horiz-adv-x="548" 
d="M364 0h-180v1443h180v-1443zM184 1575h-204l-332 298h226zM598 1575h-204l-332 298h226z" />
    <glyph glyph-name="idblgrave" unicode="&#x209;" horiz-adv-x="504" 
d="M166 0v1078h172v-1078h-172zM171 1263h-182l-280 338h210zM571 1263h-182l-280 338h210z" />
    <glyph glyph-name="Iinvertedbreve" unicode="&#x20a;" horiz-adv-x="548" 
d="M364 0h-180v1443h180v-1443zM-90 1575c0 90 32.6689 162.167 98.002 216.5s154 81.5 266 81.5s200.667 -27.167 266 -81.5s98 -126.5 98 -216.5h-154c0 52.667 -18.833 94.667 -56.5 126s-88.834 47 -153.501 47s-115.834 -15.667 -153.501 -47s-56.5 -73.333 -56.5 -126
h-154z" />
    <glyph glyph-name="iinvertedbreve" unicode="&#x20b;" horiz-adv-x="504" 
d="M166 0v1078h172v-1078h-172zM-112 1228c0 96.667 32.667 175.5 98 236.5s154 91.5 266 91.5s200.667 -30.5 266 -91.5s98 -139.833 98 -236.5h-154c0 59.333 -18.5 107.5 -55.5 144.5s-88.5 55.5 -154.5 55.5s-117.5 -18.5 -154.5 -55.5s-55.5 -85.167 -55.5 -144.5h-154
z" />
    <glyph glyph-name="Odblgrave" unicode="&#x20c;" horiz-adv-x="1579" 
d="M791 1477c204.667 0 365.834 -67.833 483.501 -203.5s176.5 -319.5 176.5 -551.5s-58.833 -416 -176.5 -552s-278.834 -204 -483.501 -204c-206 0 -368 68 -486 204s-177 320 -177 552s59.5 415.833 178.5 551.5s280.5 203.5 484.5 203.5zM791 1311
c-146.667 0 -263 -53 -349 -159s-129 -249.333 -129 -430s42.5 -324.167 127.5 -430.5s201.833 -159.5 350.5 -159.5c147.333 0 263.333 53.333 348 160s127 250 127 430c0 181.333 -42.333 324.833 -127 430.5s-200.667 158.5 -348 158.5zM701 1575h-204l-332 298h226z
M1115 1575h-204l-332 298h226z" />
    <glyph glyph-name="odblgrave" unicode="&#x20d;" horiz-adv-x="1210" 
d="M605 136c102 0 180.667 35.167 236 105.5s83 169.5 83 297.5s-27.667 227.167 -83 297.5s-134 105.5 -236 105.5s-180.667 -35.167 -236 -105.5s-83 -169.5 -83 -297.5s27.667 -227.167 83 -297.5s134 -105.5 236 -105.5zM605 -19c-153.333 0 -274.5 49.833 -363.5 149.5
s-133.5 235.834 -133.5 408.501c0 173.333 44.333 309.666 133 408.999s210 149 364 149s275.333 -49.667 364 -149s133 -235.666 133 -408.999c0 -172.667 -44.5 -308.834 -133.5 -408.501s-210.167 -149.5 -363.5 -149.5zM524 1263h-182l-280 338h210zM924 1263h-182
l-280 338h210z" />
    <glyph glyph-name="Oinvertedbreve" unicode="&#x20e;" horiz-adv-x="1579" 
d="M791 1477c204.667 0 365.834 -67.833 483.501 -203.5s176.5 -319.5 176.5 -551.5s-58.833 -416 -176.5 -552s-278.834 -204 -483.501 -204c-206 0 -368 68 -486 204s-177 320 -177 552s59.5 415.833 178.5 551.5s280.5 203.5 484.5 203.5zM791 1311
c-146.667 0 -263 -53 -349 -159s-129 -249.333 -129 -430s42.5 -324.167 127.5 -430.5s201.833 -159.5 350.5 -159.5c147.333 0 263.333 53.333 348 160s127 250 127 430c0 181.333 -42.333 324.833 -127 430.5s-200.667 158.5 -348 158.5zM427 1575
c0 90 32.6689 162.167 98.002 216.5s154 81.5 266 81.5s200.667 -27.167 266 -81.5s98 -126.5 98 -216.5h-154c0 52.667 -18.833 94.667 -56.5 126s-88.834 47 -153.501 47s-115.834 -15.667 -153.501 -47s-56.5 -73.333 -56.5 -126h-154z" />
    <glyph glyph-name="oinvertedbreve" unicode="&#x20f;" horiz-adv-x="1210" 
d="M605 136c102 0 180.667 35.167 236 105.5s83 169.5 83 297.5s-27.667 227.167 -83 297.5s-134 105.5 -236 105.5s-180.667 -35.167 -236 -105.5s-83 -169.5 -83 -297.5s27.667 -227.167 83 -297.5s134 -105.5 236 -105.5zM605 -19c-153.333 0 -274.5 49.833 -363.5 149.5
s-133.5 235.834 -133.5 408.501c0 173.333 44.333 309.666 133 408.999s210 149 364 149s275.333 -49.667 364 -149s133 -235.666 133 -408.999c0 -172.667 -44.5 -308.834 -133.5 -408.501s-210.167 -149.5 -363.5 -149.5zM241 1228c0 96.667 32.667 175.5 98 236.5
s154 91.5 266 91.5s200.667 -30.5 266 -91.5s98 -139.833 98 -236.5h-154c0 59.333 -18.5 107.5 -55.5 144.5s-88.5 55.5 -154.5 55.5s-117.5 -18.5 -154.5 -55.5s-55.5 -85.167 -55.5 -144.5h-154z" />
    <glyph glyph-name="Rdblgrave" unicode="&#x210;" horiz-adv-x="1338" 
d="M364 1283v-552.002h355c92.667 0 164.167 23.833 214.5 71.5s75.5 115.834 75.5 204.501c0 86.667 -26.333 154.334 -79 203.001s-125.667 73 -219 73h-347zM364 570.998v-571h-180v1443h551c139.333 0 250.833 -39.167 334.5 -117.5s125.5 -182.5 125.5 -312.5
c0 -100.667 -25.667 -187.667 -77 -261s-122.333 -124.333 -213 -153l334 -599h-211l-309 571h-355zM519 1575h-204l-332 298h226zM933 1575h-204l-332 298h226z" />
    <glyph glyph-name="rdblgrave" unicode="&#x211;" horiz-adv-x="765" 
d="M162 0l-0.000976562 1078h164v-160h16c16 52.667 52 95.667 108 129s119.667 50 191 50c32.667 0 61.334 -1.66699 86.001 -5v-172c-23.333 6.66699 -60 10 -110 10c-82 0 -149.667 -24.667 -203 -74s-80 -112 -80 -188v-668h-172zM296.999 1263h-182l-280 338h210z
M696.999 1263h-182l-280 338h210z" />
    <glyph glyph-name="Rinvertedbreve" unicode="&#x212;" horiz-adv-x="1338" 
d="M364 1283v-552.002h355c92.667 0 164.167 23.833 214.5 71.5s75.5 115.834 75.5 204.501c0 86.667 -26.333 154.334 -79 203.001s-125.667 73 -219 73h-347zM364 570.998v-571h-180v1443h551c139.333 0 250.833 -39.167 334.5 -117.5s125.5 -182.5 125.5 -312.5
c0 -100.667 -25.667 -187.667 -77 -261s-122.333 -124.333 -213 -153l334 -599h-211l-309 571h-355zM245 1575c0 90 32.6689 162.167 98.002 216.5s154 81.5 266 81.5s200.667 -27.167 266 -81.5s98 -126.5 98 -216.5h-154c0 52.667 -18.833 94.667 -56.5 126
s-88.834 47 -153.501 47s-115.834 -15.667 -153.501 -47s-56.5 -73.333 -56.5 -126h-154z" />
    <glyph glyph-name="rinvertedbreve" unicode="&#x213;" horiz-adv-x="765" 
d="M162 0l-0.000976562 1078h164v-160h16c16 52.667 52 95.667 108 129s119.667 50 191 50c32.667 0 61.334 -1.66699 86.001 -5v-172c-23.333 6.66699 -60 10 -110 10c-82 0 -149.667 -24.667 -203 -74s-80 -112 -80 -188v-668h-172zM13.999 1228
c0 96.667 32.667 175.5 98 236.5s154 91.5 266 91.5s200.667 -30.5 266 -91.5s98 -139.833 98 -236.5h-154c0 59.333 -18.5 107.5 -55.5 144.5s-88.5 55.5 -154.5 55.5s-117.5 -18.5 -154.5 -55.5s-55.5 -85.167 -55.5 -144.5h-154z" />
    <glyph glyph-name="Udblgrave" unicode="&#x214;" horiz-adv-x="1524" 
d="M369 1443l-0.00195312 -935c0 -111.333 34.833 -201.833 104.5 -271.5s165.834 -104.5 288.501 -104.5s218.834 34.833 288.501 104.5s104.5 160.167 104.5 271.5v935h180v-947c0 -156.667 -51.5 -284.167 -154.5 -382.5s-242.5 -147.5 -418.5 -147.5
s-315.5 49.167 -418.5 147.5s-154.5 225.833 -154.5 382.5v947h180zM671.998 1575h-204l-332 298h226zM1086 1575h-204l-332 298h226z" />
    <glyph glyph-name="udblgrave" unicode="&#x215;" horiz-adv-x="1196" 
d="M1034 1078v-1078h-164v169h-16c-27.333 -60.667 -69.333 -107.167 -126 -139.5s-126 -48.5 -208 -48.5c-120 0 -211.333 34.333 -274 103s-94 167.334 -94 296.001v698h172v-656c0 -98 19.333 -169.833 58 -215.5s100.667 -68.5 186 -68.5c94 0 166.5 26.5 217.5 79.5
s76.5 127.167 76.5 222.5v638h172zM512 1263h-182l-280 338h210zM912 1263h-182l-280 338h210z" />
    <glyph glyph-name="Uinvertedbreve" unicode="&#x216;" horiz-adv-x="1524" 
d="M369 1443l-0.00195312 -935c0 -111.333 34.833 -201.833 104.5 -271.5s165.834 -104.5 288.501 -104.5s218.834 34.833 288.501 104.5s104.5 160.167 104.5 271.5v935h180v-947c0 -156.667 -51.5 -284.167 -154.5 -382.5s-242.5 -147.5 -418.5 -147.5
s-315.5 49.167 -418.5 147.5s-154.5 225.833 -154.5 382.5v947h180zM397.998 1575c0 90 32.6689 162.167 98.002 216.5s154 81.5 266 81.5s200.667 -27.167 266 -81.5s98 -126.5 98 -216.5h-154c0 52.667 -18.833 94.667 -56.5 126s-88.834 47 -153.501 47
s-115.834 -15.667 -153.501 -47s-56.5 -73.333 -56.5 -126h-154z" />
    </font>
</defs>
</svg>
